<?xml version="1.0" standalone="no"?>
<!DOCTYPE svg PUBLIC "-//W3C//DTD SVG 1.1//EN" "http://www.w3.org/Graphics/SVG/1.1/DTD/svg11.dtd" >
<svg xmlns="http://www.w3.org/2000/svg" xmlns:xlink="http://www.w3.org/1999/xlink" version="1.1">
<metadata>
Created by FontForge 20200314 at Wed Jan 13 11:59:51 2021
 By Robert Madole
Copyright (c) Font Awesome
</metadata>
<!-- Font Awesome Pro 5.15.2 by @fontawesome - https://fontawesome.com License - https://fontawesome.com/license (Commercial License) --><defs>
<font id="FontAwesome5Pro-Solid" horiz-adv-x="512" >
  <font-face 
    font-family="Font Awesome 5 Pro Solid"
    font-weight="900"
    font-stretch="normal"
    units-per-em="512"
    panose-1="2 0 5 3 0 0 0 0 0 0"
    ascent="448"
    descent="-64"
    bbox="-0.00116174 -64.21 640.001 448.5"
    underline-thickness="25"
    underline-position="-50"
    unicode-range="U+0020-F8FF"
  />
    <missing-glyph />
    <glyph glyph-name="rocket" unicode="&#xf135;" 
d="M505.12 428.906c6.95508 -32.2031 6.95508 -57.4062 6.86133 -82.6094c0 -102.688 -55.4375 -164.781 -128.035 -211.094v-104.438c0 -16.3594 -11.8789 -35.5625 -26.5078 -42.8594l-98.7275 -49.3906c-3.27441 -1.48047 -6.91699 -2.375 -10.707 -2.51562
c-13.2471 0.00195312 -24.002 10.7539 -24.0059 24v103.844l-22.4746 -22.4688c-13.1211 -13.1562 -34.1211 -11.1875 -45.2773 0l-50.9043 50.9062c-12.9961 12.9922 -11.3652 33.8887 0 45.25l22.4746 22.4688h-103.811c-13.2461 0.00195312 -24.001 10.7539 -24.0059 24
c0.136719 3.79004 1.03223 7.43164 2.51562 10.7031l49.4355 98.8125c7.33008 14.6094 26.5391 26.4688 42.8867 26.4844h104.215c46.2168 72.7969 108.122 128 211.354 128c25.0996 0 50.3086 0 82.5059 -6.90625c5.54883 -1.1875 11.0176 -6.65625 12.207 -12.1875z
M384.04 280c22.0752 0.0078125 39.9971 17.9258 40.0098 40c0 22.0762 -17.9229 40 -40 40c-22.0762 0 -40 -17.9238 -40 -40c0 -22.0732 17.918 -39.9951 39.9902 -40z" />
    <glyph glyph-name="plug" unicode="&#xf1e6;" horiz-adv-x="384" 
d="M320 416v-96h-64v96c0 17.6611 14.3389 32 32 32s32 -14.3389 32 -32zM368 288c8.83105 0 16 -7.16895 16 -16v-32c0 -8.83105 -7.16895 -16 -16 -16h-16v-32c-0.0117188 -77.3096 -55.0684 -141.886 -128 -156.8v-99.2002h-64v99.2002
c-72.9316 14.9141 -127.988 79.4902 -128 156.8v32h-16c-8.83105 0 -16 7.16895 -16 16v32c0 8.83105 7.16895 16 16 16h352zM128 416v-96h-64v96c0 17.6611 14.3389 32 32 32s32 -14.3389 32 -32z" />
    <glyph glyph-name="hand-spock" unicode="&#xf259;" 
d="M510.9 302.729l-68.2969 -286.823c-10.8975 -45.7705 -52.0801 -79.9062 -101.166 -79.9062h-127.363c-36.0293 0 -68.8447 14.0459 -93.1855 36.9531l-108.298 101.92c-7.72754 7.29297 -12.5537 17.6299 -12.5537 29.084c0 22.0723 17.9199 39.9922 39.9922 39.9922
c10.5742 0 20.2188 -4.11426 27.374 -10.8262l60.5928 -57.0254v0c0 27.958 -4.1084 54.9473 -11.6699 80.4668l-42.6885 144.075c-1.06738 3.60254 -1.63965 7.41699 -1.63965 11.3633c0 22.0801 17.9258 40.0059 40.0049 40.0059
c18.1338 0 33.4512 -12.0977 38.3525 -28.6504l37.1543 -125.395c1.02148 -3.44629 4.21387 -5.96387 7.99023 -5.96387c4.59766 0 8.33105 3.7334 8.33105 8.33105c0 0.717773 -0.09375 1.41016 -0.264648 2.07422l-50.3047 195.641
c-0.821289 3.19238 -1.25879 6.53711 -1.25879 9.98438c0 22.0742 17.9219 39.9961 39.9971 39.9961c18.6279 0 34.291 -12.793 38.7305 -30.043l56.0947 -218.158c1.15527 -4.49512 5.23926 -7.82129 10.0928 -7.82129c5.03125 0 9.23438 3.57715 10.207 8.32227
l37.6826 183.704c3.76074 18.2139 19.9043 31.9248 39.2256 31.9248c4.20703 0 8.26562 -0.629883 12.0771 -1.83496c19.8604 -6.2998 30.8623 -27.6738 26.6758 -48.085l-33.8389 -164.967c-0.101562 -0.492188 -0.154297 -1.00098 -0.154297 -1.52344
c0 -4.16797 3.38379 -7.55176 7.55176 -7.55176c3.56445 0 6.55566 2.48535 7.34668 5.80859l29.3975 123.459c4.19141 17.6016 20.0312 30.708 38.9082 30.708c22.0732 0 39.9941 -17.9209 39.9941 -39.9941c0 -3.19727 -0.380859 -6.26465 -1.09082 -9.24512v0z" />
    <glyph glyph-name="shower" unicode="&#xf2cc;" 
d="M304 128c8.83105 0 16 -7.16895 16 -16s-7.16895 -16 -16 -16s-16 7.16895 -16 16s7.16895 16 16 16zM336 224c8.83105 0 16 -7.16895 16 -16s-7.16895 -16 -16 -16s-16 7.16895 -16 16s7.16895 16 16 16zM368 160c-8.83105 0 -16 7.16895 -16 16s7.16895 16 16 16
s16 -7.16895 16 -16s-7.16895 -16 -16 -16zM336 128c-8.83105 0 -16 7.16895 -16 16s7.16895 16 16 16s16 -7.16895 16 -16s-7.16895 -16 -16 -16zM304 192c8.83105 0 16 -7.16895 16 -16s-7.16895 -16 -16 -16s-16 7.16895 -16 16s7.16895 16 16 16zM432 224
c-8.83105 0 -16 7.16895 -16 16s7.16895 16 16 16s16 -7.16895 16 -16s-7.16895 -16 -16 -16zM384 208c0 8.83105 7.16895 16 16 16s16 -7.16895 16 -16s-7.16895 -16 -16 -16s-16 7.16895 -16 16zM368 256c8.83105 0 16 -7.16895 16 -16s-7.16895 -16 -16 -16
s-16 7.16895 -16 16s7.16895 16 16 16zM464 224c8.83105 0 16 -7.16895 16 -16s-7.16895 -16 -16 -16s-16 7.16895 -16 16s7.16895 16 16 16zM496 256c8.83105 0 16 -7.16895 16 -16s-7.16895 -16 -16 -16s-16 7.16895 -16 16s7.16895 16 16 16zM432 192
c8.83105 0 16 -7.16895 16 -16s-7.16895 -16 -16 -16s-16 7.16895 -16 16s7.16895 16 16 16zM400 160c8.83105 0 16 -7.16895 16 -16s-7.16895 -16 -16 -16s-16 7.16895 -16 16s7.16895 16 16 16zM336 96c8.83105 0 16 -7.16895 16 -16s-7.16895 -16 -16 -16
s-16 7.16895 -16 16s7.16895 16 16 16zM304 64c8.83105 0 16 -7.16895 16 -16s-7.16895 -16 -16 -16s-16 7.16895 -16 16s7.16895 16 16 16zM368 128c8.83105 0 16 -7.16895 16 -16s-7.16895 -16 -16 -16s-16 7.16895 -16 16s7.16895 16 16 16zM389.65 346.35
c2.89648 -2.89551 4.68945 -6.90039 4.68945 -11.3164s-1.79297 -8.41699 -4.68945 -11.3135l-169.381 -169.37c-2.89551 -2.89648 -6.90039 -4.68945 -11.3164 -4.68945s-8.41699 1.79297 -11.3135 4.68945l-11.2998 11.3105
c-2.89355 2.89551 -4.68457 6.89844 -4.68457 11.3125c0 4.41309 1.79102 8.41113 4.68457 11.3076l5.66016 5.66992c-19.7871 20.0811 -31.9951 47.6602 -32 78.0498c0 19.2402 5.2998 37.0801 13.9297 52.8604l-10 10c-10.5723 10.6055 -25.1416 17.167 -41.2861 17.167
c-2.58984 0 -5.1416 -0.169922 -7.64355 -0.49707c-30 -3.73047 -51 -31.7803 -51 -61.9307v-305.6c0 -8.83105 -7.16895 -16 -16 -16h-32c-8.83105 0 -16 7.16895 -16 16v303.15c0 67.9395 55.4902 129.35 123.44 128.85
c33.4453 -0.166992 63.7471 -13.835 85.6592 -35.8496l10 -10c15.8203 8.5498 33.6602 13.8496 52.9004 13.8496c30.3916 -0.000976562 57.9707 -12.21 78.0498 -32l5.66992 5.66016c2.89648 2.89648 6.90137 4.68945 11.3174 4.68945s8.41699 -1.79297 11.3125 -4.68945z
" />
    <glyph glyph-name="bath" unicode="&#xf2cd;" 
d="M32 64v48h448v-48c-0.0576172 -28.2656 -12.3916 -53.6514 -32 -71.0898v-40.9102c0 -8.83105 -7.16895 -16 -16 -16h-32c-8.83105 0 -16 7.16895 -16 16v16h-256v-16c0 -8.83105 -7.16895 -16 -16 -16h-32c-8.83105 0 -16 7.16895 -16 16v40.9102
c-19.6084 17.4385 -31.9424 42.8242 -32 71.0898zM496 192c8.83105 0 16 -7.16895 16 -16v-16c0 -8.83105 -7.16895 -16 -16 -16h-480c-8.83105 0 -16 7.16895 -16 16v16c0 8.83105 7.16895 16 16 16h16v186.75c0 38.2197 31.0391 69.2656 69.2598 69.2656
c19.1113 0 36.4248 -7.75879 48.96 -20.2959l19.2607 -19.2695c29.8994 13.1299 59.1094 7.60938 79.7295 -8.62012l0.169922 0.169922c2.89551 2.89355 6.89941 4.68457 11.3125 4.68457s8.41211 -1.79102 11.3076 -4.68457l11.3096 -11.3096
c2.89746 -2.89648 4.69043 -6.90137 4.69043 -11.3174s-1.79297 -8.41699 -4.69043 -11.3135l-105.369 -105.369c-2.89648 -2.89746 -6.90137 -4.69043 -11.3174 -4.69043s-8.41699 1.79297 -11.3135 4.69043l-11.3096 11.3096
c-2.88477 2.89453 -4.66992 6.8916 -4.66992 11.2969c0 4.40625 1.78516 8.39844 4.66992 11.293l0.169922 0.169922c-16.2295 20.6201 -21.75 49.8506 -8.62012 79.7305l-19.2695 19.2598c-3.84766 3.84082 -9.16016 6.21289 -15.0205 6.21289
c-11.7178 0 -21.2344 -9.50098 -21.2598 -21.2129v-186.75h416z" />
    <glyph glyph-name="compress-alt" unicode="&#xf422;" horiz-adv-x="448" 
d="M4.68555 20.6855l99.3145 99.3145l-32.9219 31.0293c-15.1201 15.1201 -4.41211 40.9707 16.9697 40.9707h112c13.2549 0 23.9521 -10.7451 23.9521 -24v-112c0 -21.3818 -25.8027 -32.0898 -40.9219 -16.9707l-31.0781 32.9707l-99.3145 -99.3145
c-6.24707 -6.24707 -16.3789 -6.24707 -22.627 0l-25.373 25.373c-6.24707 6.24805 -6.24707 16.3799 0 22.627zM443.314 363.314l-99.3145 -99.3145l32.9219 -31.0293c15.1201 -15.1201 4.41211 -40.9707 -16.9697 -40.9707h-112c-13.2549 0 -23.9521 10.7451 -23.9521 24
v112c0 21.3818 25.8027 32.0898 40.9219 16.9707l31.0781 -32.9707l99.3145 99.3145c6.24707 6.24707 16.3789 6.24707 22.627 0l25.373 -25.373c6.24707 -6.24805 6.24707 -16.3799 0 -22.627z" />
    <glyph glyph-name="expand-alt" unicode="&#xf424;" horiz-adv-x="448" 
d="M212.686 132.686l-92.6855 -92.6855l32.9219 -31.0293c15.1201 -15.1201 4.41211 -40.9707 -16.9697 -40.9707h-112c-13.2549 0 -23.9521 10.7451 -23.9521 24v112c0 21.3818 25.8027 32.0898 40.9219 16.9707l31.0781 -32.9707l92.6855 92.6855
c6.24805 6.24805 16.3799 6.24805 22.6279 0l25.3721 -25.3721c6.24902 -6.24805 6.24902 -16.3789 0 -22.6279zM235.314 251.314l92.6855 92.6855l-32.9219 31.0293c-15.1201 15.1201 -4.41211 40.9707 16.9697 40.9707h112c13.2549 0 23.9521 -10.7451 23.9521 -24v-112
c0 -21.3818 -25.8027 -32.0898 -40.9219 -16.9707l-31.0781 32.9707l-92.6855 -92.6855c-6.24805 -6.24805 -16.3799 -6.24805 -22.6279 0l-25.3721 25.3721c-6.24902 6.24805 -6.24902 16.3789 0 22.6279z" />
    <glyph glyph-name="balance-scale-left" unicode="&#xf515;" horiz-adv-x="640" 
d="M528 0c8.83984 0 16 -7.16016 16.0098 -16v-32c0 -8.83984 -7.16016 -16 -16 -16h-224c-8.83984 0 -16 7.16016 -16 16v342.75c-4.55957 2 -8.91992 4.34961 -12.9902 7.12012l-142.05 -47.6299c-8.37988 -2.81055 -17.4502 1.7002 -20.2598 10.0801l-10.1699 30.3398
c-2.80957 8.37988 1.7002 17.4502 10.0801 20.2598l128.39 43.0498c-0.419922 3.32031 -1.00977 6.60059 -1.00977 10.0303c0 44.1797 35.8203 80 80 80c29.6904 0 55.2998 -16.3604 69.1104 -40.3701l117.92 39.5303c8.37988 2.80957 17.4502 -1.7002 20.2598 -10.0801
l10.1699 -30.3398c2.80957 -8.37988 -1.7002 -17.4502 -10.0801 -20.2598l-132 -44.2607c-7.28027 -21.25 -22.96 -38.5293 -43.3799 -47.4697v-294.75h176zM639.98 144c0 -44.1797 -57.29 -80 -127.98 -80s-128 35.8203 -128 80h0.0195312
c0 15.6699 -2.0791 7.25 85.04 181.51c17.6807 35.3604 68.2207 35.29 85.8701 0c86.3906 -172.779 85.0508 -165.33 85.0508 -181.51zM440 160h144l-72 144zM170.93 197.51c86.3906 -172.779 85.0508 -165.33 85.0508 -181.51h0.0195312c0 -44.1797 -57.3096 -80 -128 -80
s-128 35.8203 -128 80h0.0195312c0 15.6699 -2.0791 7.25 85.04 181.51c17.6807 35.3604 68.2207 35.29 85.8701 0zM56 32h144l-72 144z" />
    <glyph glyph-name="balance-scale-right" unicode="&#xf516;" horiz-adv-x="640" 
d="M96 -16c0 8.83984 7.16016 16 16 16h175.99v294.76c-20.4199 8.93066 -36.1006 26.2207 -43.3799 47.4707l-132 44.2598c-8.37012 2.80957 -12.8906 11.8799 -10.0801 20.2598l10.1699 30.3398c2.80957 8.37012 11.8799 12.8906 20.2598 10.0801l117.93 -39.54
c13.8105 24.0098 39.4199 40.3701 69.1104 40.3701c44.1797 0 80 -35.8203 80 -80c0 -3.42969 -0.589844 -6.70996 -1.00977 -10.0303l128.399 -43.0498c8.37012 -2.80957 12.8906 -11.8799 10.0801 -20.2598l-10.1699 -30.3398
c-2.80957 -8.37012 -11.8799 -12.8906 -20.2598 -10.0801l-142.05 47.6299c-4.07031 -2.77051 -8.43066 -5.12012 -12.9902 -7.12012v-342.75c0 -8.83984 -7.16016 -16 -16 -16h-224c-8.83984 0 -16 7.16016 -16 16v32zM0 144c0 16.1797 -1.32031 8.73047 85.0596 181.51
c17.6504 35.29 68.1904 35.3604 85.8701 0c87.1299 -174.26 85.0508 -165.84 85.0508 -181.51h0.0195312c0 -44.1797 -57.3096 -80 -128 -80s-128 35.8203 -128 80zM56 160h144l-72 144zM384.02 16c0 16.1797 -1.33984 8.73047 85.04 181.51
c17.6504 35.29 68.1904 35.3604 85.8701 0c87.1299 -174.26 85.0508 -165.84 85.0508 -181.51h0.0195312c0 -44.1797 -57.3096 -80 -128 -80s-128 35.8203 -128 80h0.0195312zM440 32h144l-72 144z" />
    <glyph glyph-name="robot" unicode="&#xf544;" horiz-adv-x="640" 
d="M32 224h32v-192h-32h-0.0390625c-17.6406 0 -31.9619 14.3213 -31.9619 31.9619c0 0.0126953 0.000976562 0.0253906 0.000976562 0.0380859v128v0.0390625c0 17.6406 14.3213 31.9619 31.9619 31.9619c0.0126953 0 0.0253906 -0.000976562 0.0380859 -0.000976562z
M544 272v-272c-0.0351562 -35.3066 -28.6934 -63.9648 -64 -64h-320c-35.3066 0.0351562 -63.9648 28.6934 -64 64v272v0.0263672c0 44.1387 35.835 79.9746 79.9736 79.9746c0.00878906 0 0.0175781 -0.000976562 0.0263672 -0.000976562h112v64
c0 17.6611 14.3389 32 32 32s32 -14.3389 32 -32v-64h112h0.0263672c44.1387 0 79.9746 -35.835 79.9746 -79.9736c0 -0.00878906 -0.000976562 -0.0175781 -0.000976562 -0.0263672zM264 192c0 22.0762 -17.9238 40 -40 40s-40 -17.9238 -40 -40s17.9238 -40 40 -40
c22.0752 0 40 17.9248 40 40zM256 64h-64v-32h64v32zM352 64h-64v-32h64v32zM456 192c0 22.0762 -17.9238 40 -40 40s-40 -17.9238 -40 -40s17.9238 -40 40 -40c22.0752 0 40 17.9248 40 40zM448 64h-64v-32h64v32zM640 192v-128v-0.0390625
c0 -17.6406 -14.3213 -31.9619 -31.9619 -31.9619c-0.0126953 0 -0.0253906 0.000976562 -0.0380859 0.000976562h-32v192h32h0.0390625c17.6406 0 31.9619 -14.3213 31.9619 -31.9619c0 -0.0126953 -0.000976562 -0.0253906 -0.000976562 -0.0380859z" />
    <glyph glyph-name="grin-tongue-wink" unicode="&#xf58b;" horiz-adv-x="496" 
d="M344 264c13.2998 0 24 -10.7002 24 -24s-10.7002 -24 -24 -24s-24 10.7002 -24 24s10.7002 24 24 24zM248 440c137 0 248 -111 248 -248c0 -106.3 -67 -196.7 -161 -232c5.59961 12.2002 9 25.7002 9 40v45.5c24.7002 16.2002 43.5 38.0996 47.7998 63.7998
c1.90039 11.7998 -9.2002 21.6006 -20.7002 17.9004c-30.1992 -9.7002 -75.0996 -15.2002 -123.1 -15.2002s-92.9004 5.5 -123.1 15.2002c-11.4004 3.59961 -22.7002 -6.10059 -20.7002 -17.9004c4.2998 -25.7002 23.0996 -47.5996 47.7998 -63.7998v-45.5
c0 -14.2998 3.40039 -27.7998 9 -40c-94 35.2998 -161 125.7 -161 232c0 137 111 248 248 248zM192 215c8.40039 -7.40039 21.5996 -0.299805 20 10.7998c-4 25.2002 -34.2002 42.1006 -59.9004 42.1006c-25.6992 0 -55.8994 -16.9004 -59.8994 -42.1006
c-1.7998 -11.0996 11.2998 -18.2002 19.7998 -10.7998l9.5 8.5c14.7998 13.2002 46.2002 13.2002 61 0zM344 176c35.2998 0 64 28.7002 64 64s-28.7002 64 -64 64s-64 -28.7002 -64 -64s28.7002 -64 64 -64zM293.1 73.4004c0.800781 -0.400391 -0.5 0.299805 19 -9.30078
v-64c0 -35.5996 -29.1992 -64.5 -64.8994 -64c-35.1006 0.400391 -63.1006 29.7002 -63.1006 64.9004v63c19.2002 9.59961 18 9 18.9004 9.40039c14.4004 6.5 31.0996 -2.2002 34.5996 -17.6006l1.80078 -7.7998c2.09961 -9.2002 15.1992 -9.2002 17.2998 0l1.7998 7.7998
c3.5 15.4004 20.2002 24.1006 34.5996 17.6006z" />
    <glyph glyph-name="atom" unicode="&#xf5d2;" horiz-adv-x="448" 
d="M223.999 224c17.6484 -0.03125 31.9727 -14.3525 32.0078 -32c0 -17.6611 -14.3389 -32 -32 -32s-32 14.3389 -32 32c0 17.6582 14.335 31.9961 31.9922 32zM438.171 320c16.3789 -29.375 15.0039 -73.125 -25.1309 -128c40.1348 -54.875 41.5098 -98.625 25.1309 -128
c-29.1309 -52.375 -101.646 -43.625 -116.275 -41.875c-21.5039 -51.25 -54.2617 -86.125 -97.8965 -86.125s-76.3906 34.875 -97.8965 86.125c-14.627 -1.75 -87.1426 -10.5 -116.273 41.875c-16.3789 29.375 -15.0039 73.125 25.1289 128
c-40.1328 54.875 -41.5078 98.625 -25.1289 128c10.877 19.5 40.5078 50.625 116.273 41.875c21.5059 51.25 54.2617 86.125 97.8965 86.125s76.3926 -34.875 97.8965 -86.125c75.7656 8.875 105.398 -22.375 116.275 -41.875zM63.3389 96
c3.75195 -6.625 19.0059 -11.875 43.6348 -11c-2.75 13 -5.125 26.375 -6.75 40.125c-7.75195 6.25 -15.0039 12.625 -21.8809 19.125c-15.1289 -23.5 -19.0039 -41 -15.0039 -48.25zM100.224 258.875c1.625 13.5 3.875 26.875 6.75 40.25c-1.875 0 -4 0.375 -5.75 0.375
c-21.5059 0 -34.5078 -5.375 -37.8848 -11.5c-4 -7.25 -0.125 -24.75 15.0039 -48.25c6.87695 6.5 14.1289 12.875 21.8809 19.125zM223.999 384c-9.50195 0 -22.2539 -13.5 -33.8828 -37.25c11.2539 -3.75 22.5059 -8 33.8828 -12.875
c11.3789 4.875 22.6309 9.125 33.8828 12.875c-11.627 23.75 -24.3809 37.25 -33.8828 37.25zM223.999 0c9.50195 0 22.2559 13.5 33.8828 37.25c-11.252 3.75 -22.5039 8 -33.8828 12.875c-11.377 -4.875 -22.6289 -9.125 -33.8828 -12.875
c11.6289 -23.75 24.3809 -37.25 33.8828 -37.25zM223.999 112c44.1533 0 80 35.8467 80 80s-35.8467 80 -80 80s-80 -35.8467 -80 -80s35.8467 -80 80 -80zM384.659 96c4 7.25 0.125 24.75 -15.0039 48.25c-6.875 -6.5 -14.127 -12.875 -21.8789 -19.125
c-1.625 -13.75 -4 -27.125 -6.75195 -40.125c24.6309 -0.875 40.0098 4.375 43.6348 11zM369.655 239.75c15.1289 23.5 19.0039 41 15.0039 48.25c-3.375 6.125 -16.3789 11.5 -37.8828 11.5c-1.75 0 -3.87695 -0.375 -5.75195 -0.375
c2.87695 -13.375 5.12695 -26.75 6.75195 -40.25c7.75195 -6.25 15.0039 -12.625 21.8789 -19.125z" />
    <glyph glyph-name="atom-alt" unicode="&#xf5d3;" horiz-adv-x="448" 
d="M400.879 192c47.502 -76.3301 66.2529 -155.128 22.251 -199.129c-41.4385 -41.4219 -115.895 -29.1875 -199.132 22.6104c-83.5811 -52.0322 -157.85 -63.8916 -199.133 -22.6104c-44.001 44.001 -25.25 122.799 22.251 199.129
c-47.501 76.3291 -66.252 155.127 -22.251 199.128c44.002 43.9385 122.786 25.2197 199.117 -22.25c76.3154 47.501 155.114 66.2666 199.147 22.25c44.002 -44.001 25.2666 -122.799 -22.251 -199.128zM167.387 56.3105
c-26.0791 21.4844 -50.3613 43.8906 -79.1904 78.8604c-24.8604 -47.2354 -30.4229 -84.6895 -18.0791 -97.0488c12.3916 -12.3906 49.9238 -6.78125 97.2695 18.1885zM88.1963 248.829c23.8516 29.1426 50.0166 55.292 79.1748 79.126
c-31.001 16.3594 -57.7832 24.4062 -76.0029 24.4062c-9.67188 0 -16.9385 -2.20312 -21.251 -6.48438c-12.3438 -12.375 -6.76562 -49.8125 18.0791 -97.0479zM322.938 191.984c-28.4297 37.7617 -61.3105 70.8076 -98.9248 99.4229
c-37.6221 -28.6123 -70.5088 -61.6582 -98.9414 -99.4229c25.9072 -34.0166 54.1113 -64.7822 98.9258 -98.9238c34.0635 25.9541 64.7988 54.126 98.9404 98.9238zM256.015 192c0 -17.6709 -14.3467 -32.0166 -32.0166 -32.0166
c-17.6709 0 -32.0166 14.3457 -32.0166 32.0166c0 17.6699 14.3457 32.0156 32.0166 32.0156h0.0078125c17.666 0 32.0088 -14.3428 32.0088 -32.0088v-0.00683594zM377.878 345.861c-4.3125 4.29688 -11.5781 6.48438 -21.25 6.48438
c-18.2041 0 -45.002 -8.03125 -76.0029 -24.3906c29.1484 -23.8438 55.3135 -49.9922 79.1748 -79.126c24.8447 47.2354 30.4229 84.6729 18.0781 97.0322zM359.8 135.171c-28.9229 -35.0947 -53.2051 -57.4697 -79.1748 -78.8604
c47.3301 -24.9385 84.8467 -30.5166 97.2529 -18.1885c12.3447 12.3594 6.7666 49.8135 -18.0781 97.0488z" />
    <glyph glyph-name="shapes" unicode="&#xf61f;" 
d="M128 192c70.6455 0 128 -57.3545 128 -128s-57.3545 -128 -128 -128s-128 57.3545 -128 128s57.3545 128 128 128zM507 246.86c14.2402 -24.3799 -3.58008 -54.8604 -32.0898 -54.8604h-213.82c-28.5098 0 -46.3301 30.4805 -32.0898 54.8604l106.93 182.85
c6.48828 10.9688 18.3906 18.3311 32.0469 18.3311c13.6553 0 25.6055 -7.3623 32.0938 -18.3311zM480 160c17.6611 0 32 -14.3389 32 -32v-160c0 -17.6611 -14.3389 -32 -32 -32h-160c-17.6611 0 -32 14.3389 -32 32v160c0 17.6611 14.3389 32 32 32h160z" />
    <glyph glyph-name="envelope-open-dollar" unicode="&#xf657;" 
d="M256 30.8701c16.4199 0 32.8398 5.07031 46.8604 15.1895l209.14 151.08v-213.14c0 -26.5098 -21.4902 -48 -48 -48h-416c-26.5098 0 -48 21.4902 -48 48v213.14l209.14 -151.08c14.0205 -10.1299 30.4404 -15.1895 46.8604 -15.1895zM493.61 285.05
c11.6094 -9.09961 18.3896 -23.0303 18.3896 -37.7695v-10.6504l-96 -69.3496v184.72h-320v-184.72l-96 69.3496v10.6504c0.00195312 15.3359 7.17676 28.9824 18.3896 37.7695c8.85059 6.94043 17.2402 13.4805 29.6104 22.8105v44.1396c0 26.5098 21.4902 48 48 48
h77.5498c3.04004 2.2002 5.87012 4.25977 9.04004 6.55957c16.8203 12.2705 50.21 41.79 73.4102 41.4404c23.2002 0.349609 56.5996 -29.1797 73.4102 -41.4404c3.16992 -2.2998 6 -4.35938 9.04004 -6.55957h77.5498c26.5098 0 48 -21.4902 48 -48v-44.1396
c12.3701 -9.34082 20.7598 -15.8701 29.6104 -22.8105zM264 312c4.41992 0 8 -3.58008 8 -8v-16.29c11.29 -0.580078 22.2695 -4.51953 31.3701 -11.3496c3.89941 -2.93066 4.09961 -8.77051 0.570312 -12.1406l-11.75 -11.21
c-2.77051 -2.63965 -6.89062 -2.75977 -10.1309 -0.729492c-3.85938 2.42969 -8.25977 3.71973 -12.8193 3.71973h-28.1104c-6.5 0 -11.7998 -5.91992 -11.7998 -13.1904c0 -5.94922 3.61035 -11.1797 8.76953 -12.7295l45 -13.5
c18.6006 -5.58008 31.5801 -23.4199 31.5801 -43.3896c0 -24.5303 -19.0498 -44.4404 -42.6699 -45.0703v-16.1201c0 -4.41992 -3.58008 -8 -8 -8h-16c-4.41992 0 -8 3.58008 -8 8v16.29c-11.29 0.580078 -22.2695 4.51953 -31.3701 11.3496
c-3.89941 2.93066 -4.09961 8.77051 -0.569336 12.1406l11.75 11.21c2.76953 2.63965 6.88965 2.75977 10.1299 0.729492c3.85938 -2.42969 8.25977 -3.71973 12.8193 -3.71973h28.1104c6.5 0 11.7998 5.91992 11.7998 13.1904c0 5.94922 -3.60938 11.1797 -8.76953 12.7295
l-45 13.5c-18.6006 5.58008 -31.5801 23.4199 -31.5801 43.3896c0 24.5205 19.0498 44.4404 42.6699 45.0703v16.1201c0 4.41992 3.58008 8 8 8h16z" />
    <glyph glyph-name="envelope-open-text" unicode="&#xf658;" 
d="M176 232c-8.83984 0 -16 7.16016 -16 16v16c0 8.83984 7.16016 16 16 16h160c8.83984 0 16 -7.16016 16 -16v-16c0 -8.83984 -7.16016 -16 -16 -16h-160zM160 152v16c0 8.83984 7.16016 16 16 16h160c8.83984 0 16 -7.16016 16 -16v-16c0 -8.83984 -7.16016 -16 -16 -16
h-160c-8.83984 0 -16 7.16016 -16 16zM256 30.8701c16.4199 0 32.8398 5.07031 46.8604 15.1895l209.14 151.08v-213.14c0 -26.5098 -21.4902 -48 -48 -48h-416c-26.5098 0 -48 21.4902 -48 48v213.14l209.14 -151.08c14.0205 -10.1299 30.4404 -15.1895 46.8604 -15.1895z
M493.61 285.05c11.6094 -9.09961 18.3896 -23.0303 18.3896 -37.7695v-10.6504l-96 -69.3496v184.72h-320v-184.72l-96 69.3496v10.6504c0.00195312 15.3359 7.17676 28.9824 18.3896 37.7695c8.85059 6.94043 17.2402 13.4805 29.6104 22.8105v44.1396
c0 26.5098 21.4902 48 48 48h77.5498c3.04004 2.2002 5.87012 4.25977 9.04004 6.55957c16.8203 12.2705 50.21 41.79 73.4102 41.4404c23.2002 0.349609 56.5996 -29.1699 73.4102 -41.4404c3.16992 -2.2998 6 -4.35938 9.04004 -6.55957h77.5498
c26.5098 0 48 -21.4902 48 -48v-44.1396c12.3701 -9.34082 20.7598 -15.8701 29.6104 -22.8105z" />
    <glyph glyph-name="bahai" unicode="&#xf666;" 
d="M496.25 245.48c17.54 -2.46094 21.6797 -26.2705 6.04004 -34.6602l-98.1602 -52.6602l74.4805 -83.54c11.8594 -13.29 0.00976562 -34.25 -17.3506 -30.4902l-108.569 23.6504l4.10938 -112.55c0.430664 -11.6504 -8.87012 -19.2207 -18.4102 -19.2207
c-5.15918 0 -10.3896 2.20996 -14.1992 7.18066l-68.1807 88.8994l-68.1797 -88.8994c-3.81055 -4.9707 -9.0498 -7.18066 -14.2002 -7.18066c-9.54004 0 -18.8398 7.57031 -18.4102 19.2207l4.11035 112.55l-108.57 -23.6504
c-1.39941 -0.30957 -2.75977 -0.450195 -4.06934 -0.450195c-15.0107 0 -24.21 18.6807 -13.29 30.9307l74.4795 83.54l-98.1602 52.6592c-15.6494 8.40039 -11.5098 32.21 6.03027 34.6709l110 15.4297l-41.8203 104.34c-6.66016 16.6396 11.6006 32.1797 26.5898 22.6299
l94.04 -59.8896l34.0908 107.189c2.70996 8.55078 10.0293 12.8203 17.3496 12.8203s14.6396 -4.26953 17.3496 -12.8203l34.0908 -107.18l94.04 59.8896c14.9893 9.55078 33.2598 -5.98926 26.5898 -22.6299l-41.8203 -104.34zM338.51 136.32l-35.6094 39.9297
l46.9199 25.1699l-52.5703 7.37988l19.9902 49.8701l-44.9502 -28.6201l-16.29 51.2305l-16.3096 -51.2305l-44.9502 28.6201l19.9902 -49.8701l-52.5703 -7.37988l46.9199 -25.1699l-35.5996 -39.9297l51.8896 11.2998l-1.95996 -53.79l32.5898 42.4902l32.5898 -42.4902
l-1.96973 53.79z" />
    <glyph glyph-name="lightbulb-on" unicode="&#xf672;" horiz-adv-x="640" 
d="M240.06 -6.33984l-0.0595703 38.3398h160v-38.3398c-0.30957 -6.41992 -2.2627 -12.4834 -5.41016 -17.6602l-17.0898 -25.6904c-5.23047 -7.90918 -17.1699 -14.2793 -26.6396 -14.2793h-61.7002c-9.46973 0 -21.4102 6.37012 -26.6406 14.2793l-17.0996 25.6904
c-3.3623 5.05176 -5.3457 11.1455 -5.36035 17.6602zM319.45 448c97.46 0.30957 176.55 -78.6299 176.55 -176c0 -0.0830078 -0.03125 -0.245117 -0.03125 -0.328125c0 -44.2197 -16.4365 -84.6309 -43.5283 -115.452c-16.5205 -18.8496 -42.3604 -58.2197 -52.21 -91.4395
c-0.0400391 -0.280273 -0.110352 -0.530273 -0.110352 -0.780273h-160.24c-0.0400391 0.25 -0.110352 0.5 -0.110352 0.780273c-9.84961 33.2197 -35.6895 72.5898 -52.21 91.4395c-27.0918 30.8213 -43.5596 71.3115 -43.5596 115.531v0.249023
c0 93 73.4404 175.69 175.45 176zM320 352c8.83105 0 16 7.16895 16 16s-7.16895 16 -16 16c-61.7842 -0.0664062 -111.934 -50.2158 -112 -112c0 -8.83105 7.16895 -16 16 -16s16 7.16895 16 16c0.0498047 44.1299 35.8701 79.9502 80 80zM112 256
c0 -13.2461 -10.7539 -24 -24 -24h-64c-13.2461 0 -24 10.7539 -24 24s10.7539 24 24 24h64c13.2461 0 24 -10.7539 24 -24zM616 280c13.2461 0 24 -10.7539 24 -24s-10.7539 -24 -24 -24h-64c-13.2461 0 -24 10.7539 -24 24s10.7539 24 24 24h64zM131.08 392.78
c7.39355 -4.0918 12.3535 -11.9424 12.3535 -20.9844c0 -13.2451 -10.7539 -24 -24 -24c-4.5166 0 -8.74414 1.25098 -12.3535 3.42383l-55.4199 32c-7.39355 4.0918 -12.3535 11.9424 -12.3535 20.9844c0 13.2451 10.7539 24 24 24
c4.5166 0 8.74414 -1.25098 12.3535 -3.42383zM588.34 128.78c6.97656 -4.2002 11.5957 -11.8174 11.5957 -20.5459c0 -13.2461 -10.7539 -24 -24 -24c-4.2041 0 -8.15723 1.08301 -11.5957 2.98535l-55.4199 32c-7.39355 4.0918 -12.3535 11.9424 -12.3535 20.9844
c0 13.2451 10.7539 24 24 24c4.5166 0 8.74414 -1.25098 12.3535 -3.42383zM107.08 160.78c3.4375 1.90234 7.44238 3.01562 11.6465 3.01562c13.2461 0 24 -10.7539 24 -24c0 -8.72852 -4.66992 -16.376 -11.6465 -20.5762l-55.4199 -32
c-3.60938 -2.17285 -7.8877 -3.4541 -12.4043 -3.4541c-13.2461 0 -24 10.7549 -24 24c0 9.04199 5.01074 16.9229 12.4043 21.0146zM520.94 348c-13.2422 0.00488281 -24.0186 10.7412 -24.0186 23.9844c0 8.88379 4.83691 16.6455 12.0186 20.7959l55.4199 32
c3.4375 1.90234 7.44238 3.01562 11.6465 3.01562c13.2461 0 24 -10.7539 24 -24c0 -8.72852 -4.6709 -16.376 -11.6465 -20.5762l-55.4199 -32c-3.50879 -2.03711 -7.6084 -3.21973 -11.9541 -3.21973h-0.0458984z" />
    <glyph glyph-name="dog" unicode="&#xf6d3;" horiz-adv-x="576" 
d="M298.06 224l149.94 -53.5498v-218.45c0 -8.83105 -7.16895 -16 -16 -16h-64c-8.83105 0 -16 7.16895 -16 16v112h-160v-112c0 -8.83105 -7.16895 -16 -16 -16h-64c-8.83105 0 -16 7.16895 -16 16v213.91c-37.1602 13.25 -64 48.4297 -64 90.0898
c0 17.6611 14.3389 32 32 32s32 -14.3389 32 -32c0.0332031 -17.6455 14.3545 -31.9668 32 -32h170.06zM544 336v-32c0 -35.3223 -28.6777 -64 -64 -64h-32v-35.5801l-128 45.71v149.87c0 14.25 17.2197 21.3896 27.3096 11.3096l27.2803 -27.3096h53.6299
c10.9102 0 23.75 -7.91992 28.6201 -17.6904l7.16016 -14.3096h64c8.83105 0 16 -7.16895 16 -16zM432 336c0 8.83105 -7.16895 16 -16 16s-16 -7.16895 -16 -16s7.16895 -16 16 -16s16 7.16895 16 16z" />
    <glyph glyph-name="dog-leashed" unicode="&#xf6d4;" horiz-adv-x="576" 
d="M67.6396 444.63l220.36 -164.71v-23.9199h-48.46l-201.37 150.75c-3.76172 2.92871 -6.18359 7.5 -6.18359 12.6318c0 3.69727 1.27539 7.10742 3.38379 9.81836l9.82031 12.6201c2.92773 3.76562 7.50098 6.18945 12.6367 6.18945
c3.69434 0 7.10352 -1.27344 9.8125 -3.37988zM128 224h160v-160h-96v-112c0 -8.83105 -7.16895 -16 -16 -16h-64c-8.83105 0 -16 7.16895 -16 16v213.9c-37.1699 13.25 -64 48.4395 -64 90.0996c0 17.6611 14.3389 32 32 32s32 -14.3389 32 -32s14.3389 -32 32 -32z
M544 336v-32c0 -35.3223 -28.6777 -64 -64 -64h-32v-35.5801l-128 45.71v149.87c0 14.25 17.2305 21.3896 27.3203 11.3096l27.2793 -27.3096h53.6201c10.9199 0 23.7402 -7.91992 28.6201 -17.6904l7.16016 -14.3096h64c8.83105 0 16 -7.16895 16 -16zM320 216.16
l128 -45.71v-218.45c0 -8.83105 -7.16895 -16 -16 -16h-64c-8.83105 0 -16 7.16895 -16 16v112h-32v152.16zM432 336c0 8.83105 -7.16895 16 -16 16s-16 -7.16895 -16 -16s7.16895 -16 16 -16s16 7.16895 16 16z" />
    <glyph glyph-name="meteor" unicode="&#xf753;" 
d="M511.328 427.197c-11.6074 -38.7021 -34.3076 -111.702 -61.3037 -187.701c6.99902 -2.09375 13.4043 -4 18.6074 -5.59277c6.58301 -2.00684 11.3779 -8.13184 11.3779 -15.3672c0 -2.71875 -0.685547 -5.29395 -1.87988 -7.53906
c-22.1055 -42.2969 -82.6904 -152.795 -142.479 -214.403c-0.999023 -1.09375 -1.99902 -2.5 -2.99902 -3.5c-35.2676 -35.2773 -83.9824 -57.1094 -137.757 -57.1094c-107.53 0 -194.83 87.2998 -194.83 194.83c0 53.7559 21.7637 102.511 57.0195 137.775
c1 1 2.40625 2 3.49902 3c61.6006 59.9053 171.975 120.405 214.374 142.498c2.24512 1.19434 4.80664 1.87109 7.52441 1.87109c7.23535 0 13.374 -4.78711 15.3779 -11.3711c1.59375 -5.09375 3.5 -11.5928 5.59277 -18.5928
c75.8955 26.999 148.978 49.7021 187.675 61.2959c1.4834 0.448242 3.05664 0.689453 4.68652 0.689453c8.93164 0 16.1826 -7.25098 16.1826 -16.1826c0 -1.59961 -0.236328 -3.14062 -0.668945 -4.60059zM319.951 127.998
c-0.00976562 70.626 -57.3525 127.962 -127.98 127.962c-70.6348 0 -127.98 -57.3457 -127.98 -127.98c0 -70.6338 57.3457 -127.979 127.98 -127.979c70.6318 0 127.976 57.3438 127.976 127.976c0 0.0078125 0.00488281 0.0146484 0.00488281 0.0224609zM191.971 159.997
c-0.00292969 -17.6562 -14.3379 -31.9902 -31.9951 -31.9902c-17.6582 0 -31.9951 14.3369 -31.9951 31.9951c0 17.6592 14.3369 31.9951 31.9951 31.9951h0.0371094c17.6387 0 31.959 -14.3203 31.959 -31.959
c0 -0.0136719 -0.000976562 -0.0263672 -0.000976562 -0.0410156v0zM223.966 79.998c-0.000976562 -8.82812 -7.16895 -15.9951 -15.998 -15.9951s-15.9971 7.16895 -15.9971 15.998s7.16797 15.9971 15.9971 15.9971c8.81738 -0.0283203 15.9707 -7.18262 15.998 -16v0z
" />
    <glyph glyph-name="stars" unicode="&#xf762;" 
d="M259.69 362.035c-2.18848 1.09375 -3.69238 3.34863 -3.69238 5.95898s1.50391 4.87305 3.69238 5.96582l49.6455 20.7021l20.7031 49.6406c1.08984 2.19434 3.3457 3.7041 5.95996 3.7041c2.61328 0 4.87695 -1.50977 5.9668 -3.7041l20.7012 -49.6406l49.6455 -20.7021
c2.18848 -1.09277 3.69238 -3.34766 3.69238 -5.95801s-1.50391 -4.87305 -3.69238 -5.9668l-49.6455 -20.6992l-20.7012 -49.6436c-1.08984 -2.19336 -3.3457 -3.70312 -5.95996 -3.70312c-2.61328 0 -4.87695 1.50977 -5.9668 3.70312l-20.7031 49.6436zM364.294 180.707
c18.7969 -2.70312 26.4072 -25.9053 12.7969 -39.2012l-75.8916 -73.9941l17.8906 -104.587c0.217773 -1.26758 0.307617 -2.53613 0.307617 -3.86621c0 -12.6689 -10.2861 -22.9541 -22.9541 -22.9541c-3.84277 0 -7.4668 0.947266 -10.6504 2.61914l-93.7988 49.3877
l-93.7988 -49.3877c-16.6104 -8.90527 -36.501 5.29688 -33.2979 24.2012l18 104.587l-75.9072 73.9941c-13.7031 13.2959 -6.09375 36.498 12.7031 39.2012l104.799 15.2949l46.9072 95.1963c8.5 17.2021 32.7979 16.999 41.1885 0l46.9072 -95.1963zM509.053 228.771
c1.75 -0.875 2.95215 -2.67871 2.95215 -4.7666c0 -2.08887 -1.20215 -3.89844 -2.95215 -4.77344l-39.7139 -16.5596l-16.5586 -39.708c-0.871094 -1.75586 -2.67676 -2.96387 -4.76758 -2.96387c-2.0918 0 -3.90234 1.20801 -4.77344 2.96387l-16.5615 39.708
l-39.7119 16.5596c-1.74902 0.875 -2.95215 2.67871 -2.95215 4.7666c0 2.08887 1.20312 3.89844 2.95215 4.77344l39.7119 16.5576l16.5615 39.71c0.871094 1.75488 2.67676 2.96191 4.76758 2.96191s3.90137 -1.20703 4.77344 -2.96191l16.5586 -39.71z" />
    <glyph glyph-name="satellite" unicode="&#xf7bf;" 
d="M502.609 137.958l-96.7041 -96.7168c-5.76758 -5.74707 -13.7207 -9.30176 -22.499 -9.30176c-8.77734 0 -16.7402 3.55469 -22.5078 9.30176l-80.3262 80.418l-9.89258 -9.9082c10.8848 -23.9746 16.9482 -50.5957 16.9482 -78.6221
c0 -32.3584 -8.10156 -63.1982 -22.3555 -89.9004c-4.50098 -8.50098 -16.3936 -9.59473 -23.207 -2.79785l-107.519 107.515l-17.7998 -17.7988c0.703125 -2.60938 1.60938 -5.00098 1.60938 -7.79785c0 -17.6641 -14.3408 -32.0059 -32.0049 -32.0059
s-32.0059 14.3418 -32.0059 32.0059s14.3418 32.0039 32.0059 32.0039c2.79688 0 5.18848 -0.90625 7.79785 -1.60938l17.7998 17.7998l-107.518 107.515c-6.79883 6.8125 -5.7041 18.6113 2.79688 23.2061c26.7031 14.2539 57.1895 22.3359 89.5479 22.3359
c28.0273 0 55.0049 -6.04395 78.9805 -16.9297l9.79883 9.79883l-80.3105 80.417c-5.74609 5.78613 -9.29785 13.7539 -9.29785 22.5449s3.55176 16.7686 9.29785 22.5547l96.7197 96.7168c5.72754 5.74512 13.6484 9.30273 22.3945 9.30273
c0.0351562 0 0.0732422 -0.00488281 0.109375 -0.00488281h0.0458984c8.79199 0 16.7656 -3.5498 22.5518 -9.29785l80.3262 -80.3076l47.8047 47.8965c6.08301 6.07715 14.4805 9.83789 23.749 9.83789c9.26953 0 17.6768 -3.76074 23.7588 -9.83789l47.5088 -47.5059
c6.07031 -6.08594 9.82617 -14.4824 9.82617 -23.749s-3.75586 -17.6719 -9.82617 -23.7578l-47.8057 -47.8975l80.3105 -80.417c5.73633 -5.75195 9.28516 -13.6865 9.28516 -22.4434c0 -8.81348 -3.59277 -16.8018 -9.39453 -22.5625zM219.562 250.567l73.8252 73.8223
l-68.918 68.8994l-73.8096 -73.8066zM457.305 160.461l-68.9023 68.916l-73.8242 -73.8232l68.918 -68.8994z" />
    <glyph glyph-name="satellite-dish" unicode="&#xf7c0;" 
d="M305.449 -14.5898c7.3916 -7.29785 6.18848 -20.0967 -3 -25.0039c-77.7129 -41.8027 -176.726 -29.9102 -242.344 35.708c-65.6016 65.6035 -77.5098 164.523 -35.6914 242.332c4.89062 9.09473 17.6895 10.2979 25.0029 3l116.812 -116.813l27.3945 27.3945
c-0.6875 2.60938 -1.59375 5.00098 -1.59375 7.81348c0 17.6631 14.3398 32.0039 32.0039 32.0039c17.6631 0 32.0039 -14.3408 32.0039 -32.0039c0 -17.6641 -14.3408 -32.0039 -32.0039 -32.0039c-2.79785 0 -5.2041 0.890625 -7.79785 1.59375l-27.4102 -27.4102z
M511.976 144.933c0.0175781 -0.301758 0.0253906 -0.605469 0.0253906 -0.912109c0 -8.86133 -7.1748 -16.0488 -16.0273 -16.0898h-32.1133c-8.46289 0.0244141 -15.3867 6.65918 -15.8926 15.002c-7.50098 129.519 -111.515 234.533 -240.937 241.534
c-8.34863 0.444336 -14.9902 7.36426 -14.9902 15.8223c0 0.0292969 -0.0126953 0.0566406 -0.0117188 0.0859375v31.5986c0.0361328 8.85156 7.2334 16.0264 16.0938 16.0264c0.308594 0 0.603516 -0.00683594 0.908203 -0.0244141
c163.224 -8.59473 294.443 -139.816 302.944 -303.043zM415.964 145.229c0.0244141 -0.364258 0.0371094 -0.732422 0.0371094 -1.10254c0 -8.92578 -7.23145 -16.1621 -16.1484 -16.1963h-32.208c-8.34961 0.0605469 -15.1953 6.51953 -15.8926 14.7051
c-6.90625 77.0107 -68.1172 138.91 -144.924 145.224c-8.25781 0.592773 -14.7959 7.48633 -14.7988 15.8926v32.1143v0.00390625c0 8.9043 7.22949 16.1338 16.1338 16.1338c0.396484 0 0.775391 -0.0136719 1.16504 -0.0419922
c110.123 -8.50098 198.229 -96.6074 206.636 -206.732z" />
    <glyph glyph-name="user-nurse" unicode="&#xf82f;" horiz-adv-x="448" 
d="M319.41 128c71.4902 -3.09961 128.59 -61.5996 128.59 -133.79c0 -32.127 -26.083 -58.21 -58.21 -58.21h-331.58c-32.127 0 -58.21 26.083 -58.21 58.21c0 72.1904 57.0996 130.69 128.59 133.79l95.4102 -95.3896zM224 144c-70.6455 0 -128 57.3545 -128 128v110.18
c0 13.7119 8.62988 25.4092 20.7598 29.96l84.7705 31.79c6.98438 2.61914 14.6035 4.05176 22.498 4.05176s15.457 -1.43262 22.4414 -4.05176l84.7705 -31.75c12.1309 -4.55078 20.7598 -16.248 20.7598 -29.96v-0.0400391v-110.18c0 -70.6455 -57.3545 -128 -128 -128z
M184 376.33v-16.6602c0 -2.75977 2.24023 -5 5 -5h21.6699v-21.6699c0 -2.75977 2.24023 -5 5 -5h16.6602c2.75977 0 5 2.24023 5 5v21.6699h21.6699c2.75977 0 5 2.24023 5 5v16.6602c0 2.75977 -2.24023 5 -5 5h-21.6699v21.6699c0 2.75977 -2.24023 5 -5 5h-16.6602
c-2.75977 0 -5 -2.24023 -5 -5v-21.6699h-21.6699c-2.75977 0 -5 -2.24023 -5 -5zM144 288v-16c0 -44.1533 35.8467 -80 80 -80s80 35.8467 80 80v16h-160z" />
    <glyph glyph-name="flux-capacitor" unicode="&#xf8ba;" horiz-adv-x="448" 
d="M448 336v-288c-0.0849609 -44.1143 -35.8857 -79.915 -80 -80h-288c-44.1143 0.0849609 -79.915 35.8857 -80 80v288c0.0849609 44.1143 35.8857 79.915 80 80h288c44.1143 -0.0849609 79.915 -35.8857 80 -80zM139.062 209.172l-45 44.9531
c-7.60938 7.73438 -13.7812 22.8125 -13.7812 33.6562c0.00683594 26.4883 21.5117 47.9932 48 48c10.8438 0 25.9219 -6.17188 33.6562 -13.7812l44.9531 -45c0.576172 3.61328 0.949219 7.26465 1.10938 11c0 44.1533 -35.8467 80 -80 80s-80 -35.8467 -80 -80
s35.8467 -80 80 -80c3.75684 0.173828 7.43262 0.568359 11.0625 1.17188zM208 185.375v-89.375c0 -8.83105 7.16895 -16 16 -16s16 7.16895 16 16v89.375l91.3125 91.3125c2.5498 2.99414 4.16895 6.83301 4.39062 11.0156v0.00976562
c0 8.8252 -7.16504 15.9902 -15.9912 15.9902h-0.00878906c-4.18262 -0.22168 -8.02148 -1.84082 -11.0156 -4.39062l-84.6875 -84.6875l-84.6875 84.6875c-2.99414 2.5498 -6.83301 4.16895 -11.0156 4.39062h-0.00976562c-8.8252 0 -15.9902 -7.16504 -15.9902 -15.9912
v-0.00878906c0.22168 -4.18262 1.84082 -8.02148 4.39062 -11.0156zM224.234 16c44.0166 0.015625 79.75 35.749 79.7656 79.7656c0 22.0469 -14.3438 50.6719 -32 63.875v-63.6406c0 -26.4922 -21.5078 -48 -48 -48s-48 21.5078 -48 48v63.6406
c-17.6562 -13.2031 -32 -41.8281 -32 -63.875c0.015625 -44.0166 35.749 -79.75 79.7656 -79.7656h0.46875zM400 288c0 44.1533 -35.8467 80 -80 80s-80 -35.8467 -80 -80c0.173828 -3.75684 0.568359 -7.43262 1.17188 -11.0625l44.9531 45
c7.73438 7.60938 22.8125 13.7812 33.6562 13.7812c26.4883 -0.00683594 47.9932 -21.5117 48 -48c0 -10.8438 -6.17188 -25.9219 -13.7812 -33.6562l-45 -44.9531c3.61328 -0.576172 7.26465 -0.949219 11 -1.10938c44.1445 0.0185547 79.9814 35.8555 80 80z" />
    <glyph glyph-name="piano" unicode="&#xf8d4;" 
d="M476.62 178.19c21.0029 -10.501 35.3779 -32.1797 35.3799 -57.2402v-152.45c0 -17.6611 -14.3389 -32 -32 -32h-448c-17.6611 0 -32 14.3389 -32 32v295.5v0v0.0498047c0 101.801 82.6494 184.45 184.45 184.45h15.0996c101.801 0 184.45 -82.6484 184.45 -184.449
v-0.0507812c0.0214844 -25.0391 14.3906 -46.6963 35.3799 -57.1904zM448 0.5v96h-32v-56c0 -4.41504 -3.58496 -8 -8 -8h-16c-4.41504 0 -8 3.58496 -8 8v56h-32v-56c0 -4.41504 -3.58496 -8 -8 -8h-16c-4.41504 0 -8 3.58496 -8 8v56h-64v-56
c0 -4.41504 -3.58496 -8 -8 -8h-16c-4.41504 0 -8 3.58496 -8 8v56h-32v-56c0 -4.41504 -3.58496 -8 -8 -8h-16c-4.41504 0 -8 3.58496 -8 8v56h-32v-56c0 -4.41504 -3.58496 -8 -8 -8h-16c-4.41504 0 -8 3.58496 -8 8v56h-32v-96h384z" />
    <glyph glyph-name="air-conditioner" unicode="&#xf8f4;" horiz-adv-x="576" 
d="M544 448c17.6611 0 32 -14.3389 32 -32v-160c0 -17.6611 -14.3389 -32 -32 -32h-512c-17.6611 0 -32 14.3389 -32 32v160c0 17.6611 14.3389 32 32 32h512zM512 288v32h-448v-32h448zM216 24v168h48v-168c0 -48.5684 -39.4316 -88 -88 -88h-4.53027
c-44.9199 0 -85.21 32.1797 -90.7695 76.7598c-0.469727 3.6709 -0.734375 7.2959 -0.734375 11.0928c0 38.1816 24.4951 70.6875 58.6143 82.6475c1.66406 0.583008 3.45801 0.904297 5.32031 0.904297c8.87695 0 16.0859 -7.2002 16.0996 -16.0742v-17.6201
c0 -6.37988 -3.92969 -11.8496 -9.66016 -14.6299c-14.9199 -7.25 -24.7197 -23.0605 -21.8398 -41.4697c3.09961 -19.7305 21.2803 -33.6104 41.2803 -33.6104h6.21973c22.0762 0 40 17.9238 40 40zM437.42 138.5c34.1191 -11.96 58.5928 -44.3486 58.5928 -82.5303
c0 -3.79785 -0.243164 -7.53906 -0.712891 -11.21c-5.55957 -44.5801 -45.8496 -76.7598 -90.7695 -76.7598h-4.53027c-48.5684 0 -88 39.4316 -88 88v136h48v-136c0 -22.0762 17.9238 -40 40 -40h6.21973c19.9805 0 38.1807 13.8799 41.2803 33.6104
c2.87988 18.4092 -6.91992 34.2197 -21.8398 41.4697c-5.73047 2.78027 -9.66016 8.25 -9.66016 14.6299v17.6201c0.0136719 8.87402 7.22754 16.0693 16.1045 16.0693c1.8623 0 3.65137 -0.316406 5.31543 -0.899414z" />
    <glyph glyph-name="alien" unicode="&#xf8f5;" horiz-adv-x="448" 
d="M224 448c123.719 0 224 -88.0293 224 -232.451c0 -111.777 -134.215 -224.598 -194.863 -269.873c-8.12109 -6.06152 -18.2744 -9.65234 -29.1777 -9.65234s-20.9746 3.59082 -29.0957 9.65234c-60.6484 45.2754 -194.863 158.096 -194.863 269.873
c0 144.422 100.281 232.451 224 232.451zM176 128c8.83008 0 16 7.16992 16 16c0 44.1523 -35.8477 80 -80 80h-32c-8.83008 0 -16 -7.16992 -16 -16c0 -44.1533 35.8467 -80 80 -80h32zM304 128c44.1533 0 80 35.8467 80 80c0 8.83008 -7.16992 16 -16 16h-32
c-44.1523 0 -80 -35.8477 -80 -80c0 -8.83008 7.16992 -16 16 -16h32z" />
    <glyph glyph-name="alien-monster" unicode="&#xf8f6;" horiz-adv-x="576" 
d="M560 320c8.83008 0 16 -7.16992 16 -16v-128c0 -8.83008 -7.16992 -16 -16 -16h-48v-80c0 -8.83008 -7.16992 -16 -16 -16h-48v-80c0 -8.83008 -7.16992 -16 -16 -16h-96c-8.83008 0 -16 7.16992 -16 16v32c0 8.83008 7.16992 16 16 16h48v32h-192v-32h48
c8.83008 0 16 -7.16992 16 -16v-32c0 -8.83008 -7.16992 -16 -16 -16h-96c-8.83008 0 -16 7.16992 -16 16v80h-48c-8.83008 0 -16 7.16992 -16 16v80h-48c-8.83008 0 -16 7.16992 -16 16v128c0 8.83008 7.16992 16 16 16h32c8.83008 0 16 -7.16992 16 -16v-80h32v48
c0 8.83008 7.16992 16 16 16h48v64h-48c-8.83008 0 -16 7.16992 -16 16v32c0 8.83008 7.16992 16 16 16h32c8.83008 0 16 -7.16992 16 -16v-16h48c8.83008 0 16 -7.16992 16 -16v-48h128v48c0 8.83008 7.16992 16 16 16h48v16c0 8.83008 7.16992 16 16 16h32
c8.83008 0 16 -7.16992 16 -16v-32c0 -8.83008 -7.16992 -16 -16 -16h-48v-64h48c8.83008 0 16 -7.16992 16 -16v-48h32v80c0 8.83008 7.16992 16 16 16h32zM224 128v96h-64v-96h64zM416 128v96h-64v-96h64z" />
    <glyph glyph-name="bed-alt" unicode="&#xf8f7;" 
d="M80 288v-32h-48v128c0 17.6611 14.3389 32 32 32h384c17.6611 0 32 -14.3389 32 -32v-128h-48v32c0 17.6611 -14.3389 32 -32 32h-96c-17.6611 0 -32 -14.3389 -32 -32v-32h-32v32c0 17.6611 -14.3389 32 -32 32h-96c-17.6611 0 -32 -14.3389 -32 -32zM448 224
c35.3223 0 64 -28.6777 64 -64v-176c0 -8.83105 -7.16895 -16 -16 -16h-32c-8.83105 0 -16 7.16895 -16 16v48h-384v-48c0 -8.83105 -7.16895 -16 -16 -16h-32c-8.83105 0 -16 7.16895 -16 16v176c0 35.3223 28.6777 64 64 64h384z" />
    <glyph glyph-name="bed-bunk" unicode="&#xf8f8;" horiz-adv-x="576" 
d="M464 448c61.8145 0 112 -50.1855 112 -112v-384c0 -8.83105 -7.16895 -16 -16 -16h-32c-8.83105 0 -16 7.16895 -16 16v48h-448v-48c0 -8.83105 -7.16895 -16 -16 -16h-32c-8.83105 0 -16 7.16895 -16 16v480c0 8.83105 7.16895 16 16 16h32
c8.83105 0 16 -7.16895 16 -16v-112h160v112c0 8.83105 7.16895 16 16 16h224zM512 180.81v75.1904h-448v-192h160v112c0 8.83105 7.16895 16 16 16h224c17.1592 -0.0849609 33.5176 -4.13867 48 -11.1904zM144 96c-26.4795 0.0273438 -47.9727 21.5205 -48 48
c0 26.4922 21.5078 48 48 48s48 -21.5078 48 -48s-21.5078 -48 -48 -48zM144 352c-26.4795 0.0273438 -47.9727 21.5205 -48 48c0 26.4922 21.5078 48 48 48s48 -21.5078 48 -48s-21.5078 -48 -48 -48z" />
    <glyph glyph-name="bed-empty" unicode="&#xf8f9;" horiz-adv-x="640" 
d="M112 192c-8.83105 0 -16 7.16895 -16 16v96c0 8.83105 7.16895 16 16 16h96c8.83105 0 16 -7.16895 16 -16v-96c0 -8.83105 -7.16895 -16 -16 -16h-96zM528 320c61.8145 0 112 -50.1855 112 -112v-192c0 -8.83105 -7.16895 -16 -16 -16h-32
c-8.83105 0 -16 7.16895 -16 16v48h-512v-48c0 -8.83105 -7.16895 -16 -16 -16h-32c-8.83105 0 -16 7.16895 -16 16v352c0 8.83105 7.16895 16 16 16h32c8.83105 0 16 -7.16895 16 -16v-208h192v144c0 8.83105 7.16895 16 16 16h256z" />
    <glyph glyph-name="bell-on" unicode="&#xf8fa;" horiz-adv-x="640" 
d="M112 256c0 -13.2461 -10.7539 -24 -24 -24h-64c-13.2461 0 -24 10.7539 -24 24s10.7539 24 24 24h64c13.2461 0 24 -10.7539 24 -24zM51.6602 383.22c-7.39355 4.0918 -12.3535 11.9424 -12.3535 20.9844c0 13.2451 10.7539 24 24 24
c4.5166 0 8.74414 -1.25098 12.3535 -3.42383l55.4199 -32c7.39355 -4.0918 12.3535 -11.9424 12.3535 -20.9844c0 -13.2451 -10.7539 -24 -24 -24c-4.5166 0 -8.74414 1.25098 -12.3535 3.42383zM520.94 348c-13.2422 0.00488281 -24.0186 10.7412 -24.0186 23.9844
c0 8.88379 4.83691 16.6455 12.0186 20.7959l55.4199 32c3.4375 1.90234 7.44238 3.01562 11.6465 3.01562c13.2461 0 24 -10.7539 24 -24c0 -8.72852 -4.6709 -16.376 -11.6465 -20.5762l-55.4199 -32c-3.50879 -2.03711 -7.6084 -3.21973 -11.9541 -3.21973h-0.0458984z
M320 -64c-35.3223 0 -64 28.6777 -64 64h128c0 -35.3223 -28.6777 -64 -64 -64zM616 280c13.2461 0 24 -10.7539 24 -24s-10.7539 -24 -24 -24h-64c-13.2461 0 -24 10.7539 -24 24s10.7539 24 24 24h64zM479.92 240c0 -102.31 36.1396 -133.53 55.4697 -154.28
c5.33496 -5.60352 8.61133 -13.1895 8.61133 -21.5293c0 -0.0634766 -0.000976562 -0.126953 -0.000976562 -0.19043c-0.0898438 -16.4102 -12.9805 -32 -32.0898 -32h-383.82c-19.0898 0 -31.9795 15.5898 -32.0898 32
c0 0.0566406 -0.000976562 0.119141 -0.000976562 0.175781c0 8.3457 3.27637 15.9326 8.61133 21.5439c19.3301 20.75 55.4697 51.9707 55.4697 154.28c0 77.6904 54.4795 139.91 127.9 155.16v20.8398c0 17.6611 14.3379 32 32 32c17.6611 0 32 -14.3389 32 -32v-20.8398
c73.46 -15.25 127.939 -77.4697 127.939 -155.16z" />
    <glyph glyph-name="blinds" unicode="&#xf8fb;" 
d="M96 221.06c-13.54 -4.80762 -24.252 -15.5195 -29.0596 -29.0596h-66.9404l16 96h80v-66.9404zM157.06 160h338.94l16 -96h-512l16 96h50.9404c6.50586 -18.626 24.2119 -32.0029 45.0459 -32.0029c20.833 0 38.5674 13.377 45.0732 32.0029zM16 32h480l16 -96h-512z
M512 400c-0.0166016 -6.98145 -4.55469 -12.9062 -10.8398 -15l10.8398 -65h-384v64h-32v-64h-96l10.8398 65c-6.28516 2.09375 -10.8232 8.01855 -10.8398 15v32c0 8.83105 7.16895 16 16 16h480c8.83105 0 16 -7.16895 16 -16v-32zM128 288h368l16 -96h-354.94
c-4.80762 13.54 -15.5195 24.252 -29.0596 29.0596v66.9404z" />
    <glyph glyph-name="blinds-open" unicode="&#xf8fc;" 
d="M16 -16h480l16 -48h-512zM64 239.79c-10.8115 -8.27539 -19.3564 -19.1416 -24.8398 -31.79h-39.1602l16 48h48v-16.21zM175.59 128h320.41l16 -48h-512l16 48h32.4102c14.4326 -19.4531 37.4912 -32.0703 63.5508 -32.0703c26.0605 0 49.1963 12.6172 63.6289 32.0703z
M160 256h336l16 -48h-327.16c-5.47949 12.6504 -14.0254 23.5176 -24.8398 31.79v16.21zM512 400c0 -8.83105 -7.16895 -16 -16 -16l16 -48h-352v48h-32v-162.94c18.6426 -6.59082 31.9854 -24.3809 31.9854 -45.2695c0 -26.4912 -21.5078 -48 -48 -48s-48 21.5088 -48 48
c0 20.8887 13.3721 38.6787 32.0146 45.2695v162.94h-32v-48h-64l16 48c-8.83105 0 -16 7.16895 -16 16v32c0 8.83105 7.16895 16 16 16h480c8.83105 0 16 -7.16895 16 -16v-32z" />
    <glyph glyph-name="blinds-raised" unicode="&#xf8fd;" 
d="M16 288h80v-64h-96zM512 400c0 -8.83105 -7.16895 -16 -16 -16l16 -64h-384v64h-32v-64h-96l16 64c-8.83105 0 -16 7.16895 -16 16v32c0 8.83105 7.16895 16 16 16h480c8.83105 0 16 -7.16895 16 -16v-32zM496 288l16 -64h-384v64h368zM96 224h32v-194.94
c18.6426 -6.59082 31.9854 -24.3809 31.9854 -45.2695c0 -26.4912 -21.5078 -48 -48 -48s-48 21.5088 -48 48c0 20.8887 13.3721 38.6787 32.0146 45.2695v194.94z" />
    <glyph glyph-name="camera-home" unicode="&#xf8fe;" horiz-adv-x="448" 
d="M384 448c35.3223 0 64 -28.6777 64 -64v-288c0 -35.3223 -28.6777 -64 -64 -64h-72.7197l60.1396 -34.8301c6.92969 -4.32031 12.5801 -14.4502 12.5801 -22.6201v-11.8799c-0.00585938 -14.7031 -11.9316 -26.6426 -26.6299 -26.6699h-266.67
c-14.7168 0.00585938 -26.665 11.9531 -26.6699 26.6699v11.9004c0 8.14941 5.59961 18.2695 12.5 22.5996l60.1797 34.8301h-72.71c-35.3223 0 -64 28.6777 -64 64v288c0 35.3223 28.6777 64 64 64h320zM224 96c79.4639 0.0136719 143.976 64.5332 143.976 144
c0 79.4756 -64.5244 144 -144 144s-144 -64.5244 -144 -144c0 -79.4668 64.5107 -143.986 143.975 -144h0.0498047zM224 352c61.8027 -0.0136719 111.976 -50.1943 111.976 -112c0 -61.8145 -50.1855 -112 -112 -112s-112 50.1855 -112 112
c0 61.8057 50.1719 111.986 111.975 112h0.0498047zM224 272c8.83105 0 16 7.16895 16 16s-7.16895 16 -16 16c-35.3076 -0.0332031 -63.9668 -28.6924 -64 -64c0 -8.83105 7.16895 -16 16 -16s16 7.16895 16 16c0 17.6611 14.3389 32 32 32z" />
    <glyph glyph-name="caravan" unicode="&#xf8ff;" horiz-adv-x="640" 
d="M416 240c8.83105 0 16 -7.16895 16 -16s-7.16895 -16 -16 -16s-16 7.16895 -16 16s7.16895 16 16 16zM624 128c8.83105 0 16 -7.16895 16 -16v-32c0 -8.83105 -7.16895 -16 -16 -16h-336c0 -52.9834 -43.0166 -96 -96 -96s-96 43.0166 -96 96h-32
c-35.3223 0 -64 28.6777 -64 64v256c0 35.3223 28.6777 64 64 64h352c88.3066 0 160 -71.6934 160 -160v-160h48zM192 16c26.4795 0.0273438 47.9727 21.5205 48 48c0 26.4922 -21.5078 48 -48 48s-48 -21.5078 -48 -48s21.5078 -48 48 -48zM256 256v64
c0 17.6611 -14.3389 32 -32 32h-128c-17.6611 0 -32 -14.3389 -32 -32v-64c0 -17.6611 14.3389 -32 32 -32h128c17.6611 0 32 14.3389 32 32zM448 128v192c0 17.6611 -14.3389 32 -32 32h-64c-17.6611 0 -32 -14.3389 -32 -32v-192h128z" />
  </font>
</defs>
</svg>
