<?xml version="1.0" standalone="no"?>
<!DOCTYPE svg PUBLIC "-//W3C//DTD SVG 1.1//EN" "http://www.w3.org/Graphics/SVG/1.1/DTD/svg11.dtd" >
<svg xmlns="http://www.w3.org/2000/svg" xmlns:xlink="http://www.w3.org/1999/xlink" version="1.1">
<metadata>
Created by FontForge 20200314 at Wed Jan 13 11:59:52 2021
 By Robert Madole
Copyright (c) Font Awesome
</metadata>
<!-- Font Awesome Pro 5.15.2 by @fontawesome - https://fontawesome.com License - https://fontawesome.com/license (Commercial License) --><defs>
<font id="FontAwesome5Pro-Regular" horiz-adv-x="496" >
  <font-face 
    font-family="Font Awesome 5 Pro Regular"
    font-weight="400"
    font-stretch="normal"
    units-per-em="512"
    panose-1="2 0 5 3 0 0 0 0 0 0"
    ascent="448"
    descent="-64"
    bbox="-0.0281234 -64.3965 640 448.062"
    underline-thickness="25"
    underline-position="-50"
    unicode-range="U+0020-F8FF"
  />
    <missing-glyph />
    <glyph glyph-name="times" unicode="&#xf00d;" horiz-adv-x="320" 
d="M207.6 192l107.73 -107.71c6.22949 -6.24023 6.22949 -16.3496 0 -22.5801l-25.0303 -25.0303c-6.24023 -6.22949 -16.3496 -6.22949 -22.5801 0l-107.72 107.721l-107.71 -107.73c-6.24023 -6.22949 -16.3496 -6.22949 -22.5801 0l-25.0303 25.0303
c-6.22949 6.24023 -6.22949 16.3496 0 22.5801l107.721 107.72l-107.721 107.72c-6.22949 6.24023 -6.22949 16.3506 0 22.5801l25.0205 25.0205c6.24023 6.22949 16.3496 6.22949 22.5801 0l107.72 -107.721l107.71 107.73c6.24023 6.22949 16.3496 6.22949 22.5801 0
l25.0303 -25.0303c6.22949 -6.24023 6.22949 -16.3496 0 -22.5801z" />
    <glyph glyph-name="step-backward" unicode="&#xf048;" horiz-adv-x="448" 
d="M76 -32c-6.59961 0 -12 5.40039 -12 12v424c0 6.59961 5.40039 12 12 12h24c6.59961 0 12 -5.40039 12 -12v-184.1l219.5 188.699c20.5996 17.2002 52.5 2.80078 52.5 -24.5996v-384c0 -27.4004 -31.9004 -41.7998 -52.5 -24.5996l-219.5 187.6v-183
c0 -6.59961 -5.40039 -12 -12 -12h-24zM336 349.5l-186.7 -158l186.7 -157.1v315.1z" />
    <glyph glyph-name="step-forward" unicode="&#xf051;" horiz-adv-x="448" 
d="M372 416c6.59961 0 12 -5.40039 12 -12v-424c0 -6.59961 -5.40039 -12 -12 -12h-24c-6.59961 0 -12 5.40039 -12 12v184.1l-219.5 -188.699c-20.5996 -17.2002 -52.5 -2.80078 -52.5 24.5996v384c0 27.4004 31.9004 41.7002 52.5 24.5996l219.5 -187.6v183
c0 6.59961 5.40039 12 12 12h24zM112 34.5l186.7 158l-186.7 157.1v-315.1z" />
    <glyph glyph-name="globe" unicode="&#xf0ac;" 
d="M248 440c137 0 248 -111 248 -248s-111 -248 -248 -248s-248 111 -248 248s111 248 248 248zM427.3 280c-20.7002 42 -55.5 75.7002 -98.3994 94.7002c13.6992 -25.9004 24.5 -58.2002 31.1992 -94.7002h67.2002zM248 392c-18.5996 0 -48.5996 -41.2002 -63.2002 -112
h126.4c-14.6006 70.7998 -44.6006 112 -63.2002 112zM48 192c0 -13.7002 1.40039 -27.0996 4 -40h77.7002c-1 13.0996 -1.7002 26.2998 -1.7002 40s0.700195 26.9004 1.7002 40h-77.7002c-2.59961 -12.9004 -4 -26.2998 -4 -40zM68.7002 104
c20.7002 -42 55.5 -75.7002 98.3994 -94.7002c-13.6992 25.9004 -24.5 58.2002 -31.1992 94.7002h-67.2002zM135.9 280c6.69922 36.5 17.5 68.7998 31.1992 94.7002c-42.8994 -19 -77.6992 -52.7002 -98.3994 -94.7002h67.2002zM248 -8
c18.5996 0 48.5996 41.2002 63.2998 112h-126.5c14.6006 -70.7998 44.6006 -112 63.2002 -112zM318.1 152c1.10059 12.7998 2 26 2 40s-0.799805 27.2002 -1.89941 40h-140.3c-1.10059 -12.7998 -1.90039 -26 -1.90039 -40s0.799805 -27.2002 1.90039 -40h140.199z
M328.9 9.2998c42.8994 19 77.6992 52.7002 98.3994 94.7002h-67.2002c-6.7998 -36.5 -17.5 -68.7998 -31.1992 -94.7002zM366.3 152h77.7002c2.59961 12.9004 4 26.2998 4 40s-1.40039 27.0996 -4 40h-77.7002c1 -13.0996 1.7002 -26.2998 1.7002 -40
s-0.700195 -26.9004 -1.7002 -40z" />
    <glyph glyph-name="filter" unicode="&#xf0b0;" horiz-adv-x="512" 
d="M463.952 448c42.7227 0 64.0898 -51.792 33.9404 -81.9414l-161.893 -161.94v-220.784c0 -39.9375 -45.5273 -60.2549 -76.7998 -38.4004l-64 47.0664c-12.0869 10.665 -19.2002 24.8916 -19.2002 40v172.118l-161.884 161.94
c-30.21 30.21 -8.69727 81.9414 33.9404 81.9414h415.896zM288 224l176 176h-416l176 -176v-192l64 -48v240z" />
    <glyph glyph-name="smile" unicode="&#xf118;" 
d="M248 440c137 0 248 -111 248 -248s-111 -248 -248 -248s-248 111 -248 248s111 248 248 248zM248 -8c110.3 0 200 89.7002 200 200s-89.7002 200 -200 200s-200 -89.7002 -200 -200s89.7002 -200 200 -200zM168 208c-17.7002 0 -32 14.2998 -32 32s14.2998 32 32 32
s32 -14.2998 32 -32s-14.2998 -32 -32 -32zM328 208c-17.7002 0 -32 14.2998 -32 32s14.2998 32 32 32s32 -14.2998 32 -32s-14.2998 -32 -32 -32zM332 135.4c8.5 10.1992 23.7002 11.5 33.7998 3.09961c10.2002 -8.5 11.6006 -23.5996 3.10059 -33.7998
c-30 -36 -74.1006 -56.6006 -120.9 -56.6006s-90.9004 20.6006 -120.9 56.6006c-8.39941 10.2002 -7.09961 25.2998 3.10059 33.7998c10.0996 8.40039 25.2998 7.09961 33.7998 -3.09961c20.7998 -25.1006 51.5 -39.4004 84 -39.4004s63.2002 14.4004 84 39.4004z" />
    <glyph glyph-name="frown" unicode="&#xf119;" 
d="M248 440c137 0 248 -111 248 -248s-111 -248 -248 -248s-248 111 -248 248s111 248 248 248zM248 -8c110.3 0 200 89.7002 200 200s-89.7002 200 -200 200s-200 -89.7002 -200 -200s89.7002 -200 200 -200zM168 208c-17.7002 0 -32 14.2998 -32 32s14.2998 32 32 32
s32 -14.2998 32 -32s-14.2998 -32 -32 -32zM328 272c17.7002 0 32 -14.2998 32 -32s-14.2998 -32 -32 -32s-32 14.2998 -32 32s14.2998 32 32 32zM248 144c40.2002 0 78 -17.7002 103.8 -48.5996c8.40039 -10.2002 7.10059 -25.3008 -3.09961 -33.8008
c-10.7002 -8.7998 -25.7002 -6.59961 -33.7998 3.10059c-16.6006 20 -41 31.3994 -66.9004 31.3994s-50.2998 -11.5 -66.9004 -31.3994c-8.5 -10.2002 -23.5996 -11.5 -33.7998 -3.10059c-10.2002 8.5 -11.5996 23.6006 -3.09961 33.8008
c25.7998 30.8994 63.5996 48.5996 103.8 48.5996z" />
    <glyph glyph-name="meh" unicode="&#xf11a;" 
d="M248 440c137 0 248 -111 248 -248s-111 -248 -248 -248s-248 111 -248 248s111 248 248 248zM248 -8c110.3 0 200 89.7002 200 200s-89.7002 200 -200 200s-200 -89.7002 -200 -200s89.7002 -200 200 -200zM168 208c-17.7002 0 -32 14.2998 -32 32s14.2998 32 32 32
s32 -14.2998 32 -32s-14.2998 -32 -32 -32zM328 272c17.7002 0 32 -14.2998 32 -32s-14.2998 -32 -32 -32s-32 14.2998 -32 32s14.2998 32 32 32zM336 128c13.2002 0 24 -10.7998 24 -24s-10.7998 -24 -24 -24h-176c-13.2002 0 -24 10.7998 -24 24s10.7998 24 24 24h176z
" />
    <glyph glyph-name="level-up" unicode="&#xf148;" horiz-adv-x="320" 
d="M316.485 328c4.68652 -4.68555 4.68652 -12.2842 0.000976562 -16.9697l-22.3125 -22.3125c-4.80762 -4.80762 -12.6455 -4.66504 -17.2744 0.31543l-56.8994 61.9629v-390.996c0 -13.2549 -10.7451 -24 -24 -24h-183.976c-10.6914 0 -16.0459 12.9258 -8.48535 20.4854
l32 32c2.17188 2.17188 5.17383 3.51465 8.48535 3.51465h119.976v358.996l-56.8984 -61.9639c-4.62891 -4.98047 -12.4668 -5.12305 -17.2744 -0.31543l-22.3125 22.3125c-4.68555 4.68652 -4.68555 12.2852 0 16.9707l115.999 116.485
c4.6875 4.68555 12.2852 4.68555 16.9717 0z" />
    <glyph glyph-name="compass" unicode="&#xf14e;" 
d="M347.94 318.14c16.6592 7.61035 33.8096 -9.54004 26.1992 -26.1992l-65.9697 -144.341c-3.19238 -6.9834 -8.78613 -12.5771 -15.7695 -15.7695l-144.341 -65.9697c-16.6592 -7.61035 -33.8096 9.5498 -26.1992 26.1992l65.9697 144.341
c3.19238 6.9834 8.78613 12.5771 15.7695 15.7695zM270.58 169.42c12.4697 12.4697 12.4697 32.6904 0 45.1602s-32.6904 12.4697 -45.1602 0s-12.4697 -32.6904 0 -45.1602s32.6904 -12.4697 45.1602 0zM248 440c136.97 0 248 -111.03 248 -248s-111.03 -248 -248 -248
s-248 111.03 -248 248s111.03 248 248 248zM248 -8c110.28 0 200 89.7197 200 200s-89.7197 200 -200 200s-200 -89.7197 -200 -200s89.7197 -200 200 -200z" />
    <glyph glyph-name="dollar-sign" unicode="&#xf155;" horiz-adv-x="288" 
d="M211.9 205.9c52.7998 -15.1006 86.8994 -70.1006 73 -126.301c-11.8008 -47.7998 -57.2002 -79.5996 -106.4 -79.5996h-2.5v-48c0 -8.7998 -7.2002 -16 -16 -16h-32c-8.7998 0 -16 7.2002 -16 16v48h-2.7998c-31.7002 0 -61.7002 10.2998 -86.2998 29.4004
c-7.60059 5.89941 -8.30078 17.2998 -1.5 24.0996l22.8994 22.9004c5.5 5.5 14.1006 6.19922 20.5 1.69922c12.9004 -9.09961 28.5 -14.0996 44.4004 -14.0996h73.7998c24.7002 0 44.4004 22 40.5 47.4004c-2.5 16.2998 -15.2998 29 -31.0996 33.5l-116.301 33.1992
c-52.7998 15.1006 -86.8994 70.1006 -73 126.301c11.8008 47.7998 57.2002 79.5996 106.4 79.5996h2.5v48c0 8.7998 7.2002 16 16 16h32c8.7998 0 16 -7.2002 16 -16v-48h2.7998c31.6006 0 61.6006 -10.2998 86.2998 -29.4004
c7.60059 -5.89941 8.30078 -17.2998 1.5 -24.0996l-22.8994 -22.9004c-5.5 -5.5 -14.1006 -6.19922 -20.5 -1.69922c-12.9004 9.09961 -28.5 14.0996 -44.4004 14.0996h-73.7998c-24.7002 0 -44.4004 -22 -40.5 -47.4004c2.5 -16.2998 15.2998 -29 31.0996 -33.5z" />
    <glyph glyph-name="moon" unicode="&#xf186;" horiz-adv-x="512" 
d="M279.135 -64c-141.424 0 -256 114.64 -256 256c0 141.425 114.641 256 256 256c16.0342 -0.00292969 31.5078 -1.46875 46.7354 -4.27734c44.0205 -8.13086 53.7666 -66.8691 15.0215 -88.9189c-41.374 -23.5439 -67.4336 -67.4121 -67.4336 -115.836
c0 -83.5234 75.9238 -146.475 158.272 -130.792c43.6904 8.32129 74.5186 -42.5693 46.248 -77.4004c-47.8613 -58.9717 -120.088 -94.7754 -198.844 -94.7754zM279.135 400c-114.875 0 -208 -93.125 -208 -208s93.125 -208 208 -208
c65.2314 0 123.439 30.0361 161.575 77.0244c-111.611 -21.2568 -215.252 64.0957 -215.252 177.943c0 67.5127 36.9326 126.392 91.6934 157.555c-12.3271 2.27637 -25.0312 3.47754 -38.0166 3.47754z" />
    <glyph glyph-name="university" unicode="&#xf19c;" horiz-adv-x="512" 
d="M472 8c13.2549 0 24 -10.7451 24 -24v-16c0 -4.41504 -3.58496 -8 -8 -8h-464c-4.41504 0 -8 3.58496 -8 8v16c0 13.2549 10.7451 24 24 24h8v56c0 13.2549 10.7451 24 24 24h16v152h48v-152h48v152h48v-152h48v152h48v-152h48v152h48v-152h16
c13.2549 0 24 -10.7451 24 -24v-56h8zM416 8v32h-320v-32h320zM488.267 330.942c4.65625 -1.77148 7.7334 -6.23438 7.7334 -11.2168v-27.7256c0 -6.62695 -5.37305 -12 -12 -12h-20v-12c0 -6.62695 -5.37305 -12 -12 -12h-392c-6.62695 0 -12 5.37305 -12 12v12h-20
c-6.62695 0 -12 5.37305 -12 12v27.7256c0 5.12305 3.21094 9.49609 7.7334 11.2168l217.088 90.5947c4.76855 1.58984 9.88574 2.4502 15.1865 2.4502s10.4023 -0.860352 15.1709 -2.4502zM64 304h384l-192 72z" />
    <glyph glyph-name="wifi" unicode="&#xf1eb;" horiz-adv-x="640" 
d="M320 80c-17.6504 0 -32 -14.3604 -32 -32s14.3604 -32 32 -32s32 14.3604 32 32s-14.3604 32 -32 32zM320 128c44.1797 0 80 -35.8203 80 -80s-35.8203 -80 -80 -80s-80 35.8203 -80 80s35.8203 80 80 80zM524.69 159.83l-16.4707 -17.3701
c-4.45996 -4.7002 -11.8096 -4.9502 -16.6201 -0.599609c-97.54 88.21 -245.779 88.1299 -343.22 0c-4.80957 -4.35059 -12.1602 -4.11035 -16.6201 0.599609l-16.4697 17.3701c-4.61035 4.87012 -4.37012 12.6396 0.589844 17.1504c115.811 105.38 292.48 105.319 408.22 0
c4.9707 -4.51074 5.20996 -12.2803 0.59082 -17.1504zM636.11 293.81c4.93945 -4.50977 5.21973 -12.1396 0.569336 -16.9492l-16.5996 -17.1807c-4.52051 -4.66992 -12 -4.92969 -16.8105 -0.540039c-159.72 145.91 -406.949 145.79 -566.539 0
c-4.80078 -4.38965 -12.29 -4.13965 -16.8105 0.540039l-16.5996 17.1807c-4.65039 4.80957 -4.37012 12.4297 0.569336 16.9492c177.95 162.78 453.971 163.051 632.221 0z" />
    <glyph glyph-name="ship" unicode="&#xf21a;" horiz-adv-x="640" 
d="M484.843 68.6035c23.6094 -51.9316 71.1768 -84.6035 143.157 -84.6035c6.62695 0 12 -5.37305 12 -12v-24c0 -6.62695 -5.37305 -12 -12 -12c-61.1758 0 -114.051 16.6885 -157.164 66.4922c-6.43945 -37.6992 -39.3291 -66.4922 -78.8359 -66.4922h-144
c-39.5068 0 -72.3965 28.793 -78.8359 66.4922c-42.8301 -49.4775 -95.4824 -66.4922 -157.164 -66.4922c-6.62695 0 -12 5.37305 -12 12v24c0 6.62695 5.37305 12 12 12c72.5762 0 119.794 33.2129 143.158 84.6055l-74.1631 62.7529
c-28.3672 24.002 -19.7988 69.8506 15.3037 82.002l55.7012 19.2803v127.359c0 13.2549 10.7451 24 24 24h48v40c0 13.2549 10.7451 24 24 24h144c13.2549 0 24 -10.7451 24 -24v-40h48c13.2549 0 24 -10.7451 24 -24v-127.359l55.7021 -19.2812
c35.1152 -12.1553 43.6621 -58.0088 15.3037 -82.002zM264 408v-24h112v24h-112zM200 336v-86.7441l104.298 36.1035c4.91699 1.70215 10.2207 2.62695 15.7139 2.62695s10.7725 -0.924805 15.6895 -2.62695l104.299 -36.1035v86.7441h-240zM424 16v64l104 88l-208 72
l-208 -72l104 -88v-64c0 -17.6729 14.3271 -32 32 -32h144c17.6729 0 32 14.3271 32 32z" />
    <glyph glyph-name="venus" unicode="&#xf221;" horiz-adv-x="288" 
d="M288 272c0 -71.4004 -51.9004 -130.6 -120 -142v-58h44c6.59961 0 12 -5.40039 12 -12v-24c0 -6.59961 -5.40039 -12 -12 -12h-44v-44c0 -6.59961 -5.40039 -12 -12 -12h-24c-6.59961 0 -12 5.40039 -12 12v44h-44c-6.59961 0 -12 5.40039 -12 12v24
c0 6.59961 5.40039 12 12 12h44v58c-68.0996 11.4004 -120 70.5996 -120 142c0 79.5 64.5 144 144 144s144 -64.5 144 -144zM48 272c0 -52.9004 43.0996 -96 96 -96s96 43.0996 96 96s-43.0996 96 -96 96s-96 -43.0996 -96 -96z" />
    <glyph glyph-name="genderless" unicode="&#xf22d;" horiz-adv-x="288" 
d="M144 288c-52.9004 0 -96 -43.0996 -96 -96s43.0996 -96 96 -96s96 43.0996 96 96s-43.0996 96 -96 96zM144 336c79.5 0 144 -64.5 144 -144s-64.5 -144 -144 -144s-144 64.5 -144 144s64.5 144 144 144z" />
    <glyph glyph-name="user-circle" unicode="&#xf2bd;" 
d="M248 344c53 0 96 -43 96 -96s-43 -96 -96 -96s-96 43 -96 96s43 96 96 96zM248 200c26.5 0 48 21.5 48 48s-21.5 48 -48 48s-48 -21.5 -48 -48s21.5 -48 48 -48zM248 440c137 0 248 -111 248 -248s-111 -248 -248 -248s-248 111 -248 248s111 248 248 248zM248 -8
c49.7002 0 95.0996 18.2998 130.1 48.4004c-14.8994 23 -40.3994 38.5 -69.5996 39.5c-20.7998 -6.5 -40.5996 -9.60059 -60.5 -9.60059s-39.7002 3.2002 -60.5 9.60059c-29.2002 -0.900391 -54.7002 -16.5 -69.5996 -39.5c35 -30.1006 80.3994 -48.4004 130.1 -48.4004z
M410.7 76.0996c23.3994 32.7002 37.2998 72.7002 37.2998 115.9c0 110.3 -89.7002 200 -200 200s-200 -89.7002 -200 -200c0 -43.2002 13.9004 -83.2002 37.2998 -115.9c24.5 31.4004 62.2002 51.9004 105.101 51.9004c10.1992 0 26.0996 -9.59961 57.5996 -9.59961
c31.5996 0 47.4004 9.59961 57.5996 9.59961c43 0 80.7002 -20.5 105.101 -51.9004z" />
    <glyph glyph-name="usd-circle" unicode="&#xf2e8;" 
d="M291 204c29 -8.90039 49.2002 -37.0996 49.2002 -68.5996c0 -39.3008 -30.6006 -71.3008 -68.2002 -71.4004v-16c0 -8.7998 -7.2002 -16 -16 -16h-16c-8.7998 0 -16 7.2002 -16 16v16.2002c-16.5 0.599609 -32.5996 5.7998 -46.4004 15.0996
c-8.59961 5.7998 -9.89941 18 -2.2998 25.2002l12 11.2998c5.40039 5 13.2998 5.2998 19.7002 1.60059c6.09961 -3.5 12.9004 -5.40039 19.9004 -5.40039h45c11.2998 0 20.5 10.5 20.5 23.4004c0 10.5996 -6.2002 19.8994 -15.2002 22.6992l-72 21.9004
c-29 8.90039 -49.2002 37.0996 -49.2002 68.5996c0 39.3008 30.5996 71.3008 68.2002 71.4004v16c0 8.7998 7.2002 16 16 16h16c8.7998 0 16 -7.2002 16 -16v-16.2002c16.5 -0.599609 32.5996 -5.7998 46.3994 -15.0996c8.60059 -5.7998 9.90039 -18 2.30078 -25.2002
l-12 -11.2998c-5.40039 -5 -13.3008 -5.2998 -19.7002 -1.60059c-6.10059 3.5 -12.9004 5.40039 -19.9004 5.40039h-45c-11.2998 0 -20.5 -10.5 -20.5 -23.4004c0 -10.5996 6.2002 -19.8994 15.2002 -22.6992zM248 440c137 0 248 -111 248 -248s-111 -248 -248 -248
s-248 111 -248 248s111 248 248 248zM248 -8c110.3 0 200 89.7002 200 200s-89.7002 200 -200 200s-200 -89.7002 -200 -200s89.7002 -200 200 -200z" />
    <glyph glyph-name="scrubber" unicode="&#xf2f8;" 
d="M248 392c-110.5 0 -200 -89.5 -200 -200s89.5 -200 200 -200s200 89.5 200 200s-89.5 200 -200 200zM248 440c137 0 248 -111 248 -248s-111 -248 -248 -248s-248 111 -248 248s111 248 248 248zM248 256c35.2998 0 64 -28.7002 64 -64s-28.7002 -64 -64 -64
s-64 28.7002 -64 64s28.7002 64 64 64z" />
    <glyph glyph-name="arrow-alt-down" unicode="&#xf354;" horiz-adv-x="448" 
d="M400 240c42.7002 0 64 -51.7998 34 -81.9004l-176 -176c-18.7998 -18.6992 -49.2002 -18.6992 -67.9004 0l-175.899 176c-30.2998 30.2002 -8.7002 81.9004 33.8994 81.9004h73.7002v128c0 26.5 21.5 48 48 48h108.4c26.5 0 48 -21.5 48 -48v-128h73.7998zM224 16
l176 176h-121.9v176h-108.3v-176h-121.8z" />
    <glyph glyph-name="arrow-alt-up" unicode="&#xf357;" horiz-adv-x="448" 
d="M48.0479 144c-42.7227 0 -64.0898 51.792 -33.9404 81.9414l175.951 176c18.7451 18.7451 49.1377 18.7441 67.8828 0l175.942 -176c30.21 -30.21 8.69727 -81.9414 -33.9404 -81.9414h-73.7891v-128c0 -26.5098 -21.4902 -48 -48 -48h-108.309
c-26.5098 0 -48 21.4902 -48 48v128h-73.7979zM224 368l-176 -176h121.846v-176h108.309v176h121.846z" />
    <glyph glyph-name="baseball-ball" unicode="&#xf433;" 
d="M248 440c137 0 248 -111 248 -248s-111 -248 -248 -248s-248 111 -248 248s111 248 248 248zM114 44c79.2998 -71.9004 194.5 -66.7002 268.1 0c-12.0996 14.2998 -22.5 29.9004 -30.7998 46.9004l26.7998 13.0996c6.80078 -13.9004 15.3008 -26.5 24.9004 -38.2998
c64.2998 78.7998 55.7002 184.399 -0.0996094 252.7c-9.5 -11.8008 -18 -24.4004 -24.8008 -38.3008l-26.7998 13c8.2998 17.1006 18.7002 32.7002 30.7002 47c-79.5996 72 -194.7 66.4004 -268 0c12 -14.2998 22.4004 -29.7998 30.7002 -46.7998l-26.7998 -13.0996
c-6.7002 13.7998 -15.2002 26.3994 -24.8008 38.2002c-64.7998 -79.3008 -55.3994 -185 0 -252.7c9.60059 11.8994 18.1006 24.5 24.9004 38.3994l26.7998 -13c-8.2998 -17.0996 -18.7998 -32.6992 -30.7998 -47.0996zM156.7 120.5l-28.2998 9.2002
c12.1992 37.5 14 81.5 -0.100586 124.7l28.2998 9.19922c16.3008 -50 14 -100.399 0.100586 -143.1zM367.7 129.7l-28.2998 -9.2002c-16.3008 50 -14 100.5 -0.100586 143.1l28.2998 -9.19922c-12.1992 -37.4004 -14 -81.5 0.100586 -124.7z" />
    <glyph glyph-name="basketball-ball" unicode="&#xf434;" 
d="M248 440c137.2 0 248 -111 248 -248c0 -138 -111.8 -248 -248 -248c-136.4 0 -248 110.1 -248 248c0 137.1 111 248 248 248zM234.1 -7.2998c8 44.8994 27.7002 87.2002 56.9004 122.3l-43 43l-123.3 -123.3c32.2998 -25.2998 70.5 -39.2998 109.399 -42zM325.6 80.4004
c-19.8994 -25.1006 -34.1992 -53.9004 -41.5 -85c31.1006 5.69922 61.1006 18.7998 87.2002 39.2998zM359.6 114.3l45.7002 -45.7998c20.2002 25.5996 33.6006 55.4004 39.4004 87.2998c-31.2002 -7.2998 -60.1006 -21.5 -85.1006 -41.5zM447.3 205.9
c-2.7002 40.1992 -17.2998 78 -42.0996 109.399l-123.3 -123.399l43 -43c35.1992 29.1992 77.3994 48.8994 122.399 57zM139 267l-48.2998 48.2998c-20.7998 -26.5 -34.2998 -57.3994 -39.7998 -90.3994c32.2998 7.09961 62.2998 21.5 88.0996 42.0996zM124.7 349.3
l48.2002 -48.2998c20.5996 25.7998 35 55.7998 42.0996 88.0996c-33 -5.5 -63.9004 -19 -90.2998 -39.7998zM264.9 391.2c-7.7002 -46 -27.6006 -89.1006 -57.3008 -124.9l40.4004 -40.3994l123.3 123.399c-30.5996 24.1006 -67.2998 38.6006 -106.399 41.9004zM48.7998 175
c3.2998 -39 17.7998 -75.7002 41.9004 -106.4l123.3 123.301l-40.4004 40.3994c-35.6992 -29.7002 -78.7998 -49.5 -124.8 -57.2998z" />
    <glyph glyph-name="bowling-ball" unicode="&#xf436;" 
d="M248 440c137 0 248 -111 248 -248s-111 -248 -248 -248s-248 111 -248 248s111 248 248 248zM248 -8c110.3 0 200 89.7002 200 200s-89.7002 200 -200 200s-200 -89.7002 -200 -200s89.7002 -200 200 -200zM152 288c17.7002 0 32 -14.2998 32 -32s-14.2998 -32 -32 -32
s-32 14.2998 -32 32s14.2998 32 32 32zM264 320c0 -17.7002 -14.2998 -32 -32 -32s-32 14.2998 -32 32s14.2998 32 32 32s32 -14.2998 32 -32zM248 256c17.7002 0 32 -14.2998 32 -32s-14.2998 -32 -32 -32s-32 14.2998 -32 32s14.2998 32 32 32z" />
    <glyph glyph-name="football-ball" unicode="&#xf44e;" 
d="M481.4 387.1c17 -64.5996 42.7998 -227 -79.9004 -349.899c-138 -138.2 -325.9 -83.7002 -349.7 -77.2998c-18.0996 4.89941 -32.3994 18.2998 -37.2002 36.5c-17 64.6992 -42.7998 227 79.9004 349.899c137.9 138.101 325.9 84.6006 349.7 78.2002
c18.0996 -4.90039 32.3994 -19.2002 37.2002 -37.4004zM64.2998 5.40039c20.6006 -5.5 52.2998 -11.7002 89.1006 -12.9004l-105.101 105.1c1.10059 -37 7.40039 -68.5996 12.7998 -88.8994c0.400391 -1.60059 1.60059 -2.90039 3.2002 -3.2998zM367.6 72.0996
c46.5 46.6006 67.9004 100.301 76 150.601l-165.1 165.1c-58.5 -9.2998 -108.9 -34.5996 -150.1 -75.8994c-46.5 -46.6006 -67.9004 -100.301 -76.1006 -150.5l165.2 -165.2c58.5 9.2998 108.9 34.5996 150.1 75.8994zM342.6 391.5l105.101 -105.1
c-1.10059 37 -7.40039 68.5996 -12.7998 88.8994c-0.400391 1.60059 -1.60059 2.90039 -3.2002 3.2998c-20.6006 5.5 -52.2998 11.7002 -89.1006 12.9004zM253.7 288.2c3.09961 3.09961 8.09961 3.09961 11.2998 0l28.2002 -28.4004l28.2998 28.2998
c3.09961 3.10059 8.2002 3.10059 11.2998 0l11.2998 -11.2998c3.10059 -3.09961 3.10059 -8.2002 0 -11.2998l-28.2998 -28.2998l28.2998 -28.2998c3.10059 -3.10059 3.10059 -8.2002 0 -11.3008l-11.2998 -11.2998c-3.09961 -3.09961 -8.2002 -3.09961 -11.2998 0
l-28.2998 28.2998l-22.6006 -22.5996l28.3008 -28.2998c3.09961 -3.10059 3.09961 -8.2002 0 -11.2998l-11.3008 -11.3008c-3.09961 -3.09961 -8.19922 -3.09961 -11.2998 0l-28.2998 28.3008l-22.5996 -22.6006l28.2998 -28.2998
c3.09961 -3.09961 3.09961 -8.2002 0 -11.2998l-11.2998 -11.2998c-3.10059 -3.10059 -8.2002 -3.10059 -11.3008 0l-28.2998 28.2998l-28.2998 -28.2998c-3.09961 -3.10059 -8.2002 -3.10059 -11.2998 0l-11.2998 11.2998c-3.10059 3.09961 -3.10059 8.2002 0 11.2998
l28.2998 28.2998l-28.2998 28.2998c-3.10059 3.10059 -3.10059 8.2002 0 11.3008l11.2998 11.2998c3.09961 3.09961 8.2002 3.09961 11.2998 0l28.2998 -28.2998l22.6006 22.5996l-28.3008 28.2998c-3.09961 3.10059 -3.09961 8.2002 0 11.2998l11.3008 11.3008
c3.09961 3.09961 8.19922 3.09961 11.2998 0l28.2998 -28.3008l22.7002 22.7002l-28.2998 28.2998c-3.10059 3.10059 -3.10059 8.2002 0 11.3008z" />
    <glyph glyph-name="tennis-ball" unicode="&#xf45e;" 
d="M495 211.8c0.5 -6.59961 1 -13.0996 1 -19.7998c0 -136.8 -111.2 -248 -248 -248c-6.7002 0 -13.2998 0.5 -19.9004 1h-0.0996094c-120.8 9.7002 -217.3 106.2 -227 227v0.0996094c-0.5 6.60059 -1 13.2002 -1 19.9004c0 136.8 111.2 248 248 248
c6.7002 0 13.2998 -0.5 19.7998 -1c0.100586 0 0.200195 0.0996094 0.299805 0.0996094v-0.0996094c120.7 -9.7998 217.101 -106.2 226.9 -226.9h0.0996094c0 -0.0996094 -0.0996094 -0.199219 -0.0996094 -0.299805zM219.3 389.7
c-87.2998 -12.7002 -156.3 -81.7002 -168.899 -168.9c6.19922 1.7002 12.5996 2.7998 19.2998 2.7998c37.7002 0 79.7998 16.9004 104.899 41.9004c25 25 41.9004 67.2002 41.9004 104.9c0 6.69922 1.09961 13.0996 2.7998 19.2998zM50 165.1
c12 -88.6992 82.4004 -159.1 171.1 -171.199c6.40039 4.19922 10.5 11.3994 10.5 19.6992c0.100586 50.4004 22 104.801 56 138.801s88.4004 56 138.801 56c8.19922 0 15.3994 4 19.5996 10.3994c-12 88.7998 -82.4004 159.2 -171.2 171.2
c-6.39941 -4.2002 -10.3994 -11.4004 -10.3994 -19.5996c-0.100586 -50.3008 -22 -104.801 -56 -138.801s-88.5 -56 -138.801 -56c-8.19922 0 -15.3994 -4.09961 -19.5996 -10.5zM276.8 -5.7002c87.2002 12.7002 156.2 81.7002 168.9 168.9
c-6.2002 -1.7002 -12.6006 -2.7998 -19.2998 -2.7998c-37.7002 0 -79.8008 -16.8008 -104.9 -41.9004c-25 -25 -41.9004 -67.2002 -41.9004 -104.9c0 -6.69922 -1.09961 -13.0996 -2.7998 -19.2998z" />
    <glyph glyph-name="heart-circle" unicode="&#xf4c7;" 
d="M361.8 285.2c42.4004 -36.2002 36.1006 -95.2002 6.2002 -126.3l-98.7002 -102c-9.89941 -10.2002 -29.3994 -13.4004 -42.3994 0l-98.7002 102c-30.1006 31.0996 -36.4004 90.0996 6 126.3c38.2998 32.7998 89 17.7998 113.8 -7.7998
c24.7998 25.5996 75.5 40.5996 113.8 7.7998zM334.1 192.5c13.1006 13.5 16.2002 39.7998 -2.69922 56c-14 12 -36.1006 9 -49.3008 -4.7002l-34.0996 -35.3994l-34.0996 35.3994c-13.2002 13.7002 -35.2002 16.7002 -49.3008 4.7002
c-18.8994 -16.2002 -15.6992 -42.4004 -2.69922 -55.9004l86.0996 -89.0996zM248 440c137 0 248 -111 248 -248s-111 -248 -248 -248s-248 111 -248 248s111 248 248 248zM248 -8c110.3 0 200 89.7002 200 200s-89.7002 200 -200 200s-200 -89.7002 -200 -200
s89.7002 -200 200 -200z" />
    <glyph glyph-name="smile-wink" unicode="&#xf4da;" 
d="M248 440c137 0 248 -111 248 -248s-111 -248 -248 -248s-248 111 -248 248s111 248 248 248zM248 -8c110.3 0 200 89.7002 200 200s-89.7002 200 -200 200s-200 -89.7002 -200 -200s89.7002 -200 200 -200zM365.8 138.4c10.2002 -8.5 11.6006 -23.6006 3.10059 -33.8008
c-30 -36 -74.1006 -56.5996 -120.9 -56.5996s-90.9004 20.5996 -120.9 56.5996c-8.39941 10.2002 -7.09961 25.3008 3.10059 33.8008c10.0996 8.39941 25.2998 7.09961 33.7998 -3.10059c20.7998 -25.0996 51.5 -39.3994 84 -39.3994s63.2002 14.3994 84 39.3994
c8.5 10.2002 23.5996 11.6006 33.7998 3.10059zM168 208c-17.7002 0 -32 14.2998 -32 32s14.2998 32 32 32s32 -14.2998 32 -32s-14.2998 -32 -32 -32zM328 268c25.7002 0 55.9004 -16.9004 59.7002 -42.0996c1.7998 -11.1006 -11.2998 -18.2002 -19.7998 -10.8008l-9.5 8.5
c-14.8008 13.2002 -46.2002 13.2002 -61 0l-9.5 -8.5c-8.30078 -7.39941 -21.5 -0.399414 -19.8008 10.8008c4 25.1992 34.2002 42.0996 59.9004 42.0996z" />
    <glyph glyph-name="wine-glass" unicode="&#xf4e3;" horiz-adv-x="288" 
d="M216 -16c22.0898 0 40 -17.9102 40 -40c0 -4.41992 -3.58008 -8 -8 -8h-208c-4.41992 0 -8 3.58008 -8 8c0 22.0898 17.9102 40 40 40h48v115.46c-72.5996 12.5098 -126.31 78.75 -119.4 155.88l15.96 178.11c0.730469 8.24023 7.55078 14.5498 15.7002 14.5498h223.48
c8.16016 0 14.9697 -6.30957 15.71 -14.5498l15.9502 -178.11c6.90918 -77.1299 -46.8008 -143.359 -119.4 -155.88v-115.46h48zM130.99 145.73h26.0195c51.1602 7.09961 87.2803 52.8799 82.5801 105.329l-13.3398 148.94h-164.5l-13.3398 -148.94
c-4.7002 -52.4492 31.4199 -98.2295 82.5801 -105.329z" />
    <glyph glyph-name="compact-disc" unicode="&#xf51f;" 
d="M248 440c137 0 248 -111 248 -248s-111 -248 -248 -248s-248 111 -248 248s111 248 248 248zM248 -8c110.3 0 200 89.7002 200 200s-89.7002 200 -200 200s-200 -89.7002 -200 -200s89.7002 -200 200 -200zM248 352v-32c-70.5996 0 -128 -57.4004 -128 -128h-32
c0 88.2002 71.7998 160 160 160zM248 280c48.5996 0 88 -39.4004 88 -88s-39.4004 -88 -88 -88s-88 39.4004 -88 88s39.4004 88 88 88zM248 160c17.7002 0 32 14.2998 32 32s-14.2998 32 -32 32s-32 -14.2998 -32 -32s14.2998 -32 32 -32z" />
    <glyph glyph-name="store" unicode="&#xf54e;" horiz-adv-x="616" 
d="M602 329.4c29.5996 -47.2002 10 -110.601 -38 -130.801v-227.399c0 -19.4004 -14.2998 -35.2002 -32 -35.2002h-448c-17.7002 0 -32 15.7998 -32 35.2002v227.399c-48 20.2002 -67.5996 83.6006 -38 130.801l64.9004 103.6c5.7998 9.2998 16.0996 15 27.0996 15h404
c11 0 21.2998 -5.7002 27.0996 -15zM516 -16v96h-416v-96h416zM515.8 128.2v64.7002c-24 3.2998 -45 15.1992 -60.2998 32.1992c-18 -20.0996 -44.2002 -33.0996 -73.7998 -33.0996c-29.5 0 -55.7998 13 -73.7998 33.0996c-18 -20.0996 -44.2002 -33.0996 -73.8008 -33.0996
c-29.5 0 -55.7998 13 -73.7998 33.0996c-15.2002 -17 -36.2998 -28.8994 -60.2998 -32.1992v-64.7002h415.8zM563.7 261.2c5.09961 10.7998 7.09961 27.5996 -2.40039 42.7002l-60.2002 96.0996h-386.3l-60.2002 -96.0996c-9.39941 -15 -7.2998 -31.8008 -2.2998 -42.6006
c3.2002 -6.89941 11 -18.5996 27 -20.7998c2.2998 -0.299805 4.7002 -0.5 7.2002 -0.5c14.5996 0 28.2002 6.09961 38.0996 17.2002l35.7002 39.7998l35.7998 -39.7998c9.90039 -11.1006 23.4004 -17.2002 38.1006 -17.2002c14.5996 0 28.2002 6.09961 38.0996 17.2002
l35.7002 39.7998l35.7998 -39.7998c9.90039 -11.1006 23.5 -17.2002 38.1006 -17.2002c14.5996 0 28.1992 6.09961 38.0996 17.2002l35.7002 39.7998l35.7002 -39.9004c9.89941 -11.0996 23.3994 -17.1992 38.0996 -17.1992c2.40039 0 4.7998 0.199219 7.2002 0.5
c16.0996 2.19922 23.7998 14 27 20.7998z" />
    <glyph glyph-name="angry" unicode="&#xf556;" 
d="M248 440c137 0 248 -111 248 -248s-111 -248 -248 -248s-248 111 -248 248s111 248 248 248zM248 -8c110.3 0 200 89.7002 200 200s-89.7002 200 -200 200s-200 -89.7002 -200 -200s89.7002 -200 200 -200zM248 136c33.5996 0 65.2002 -14.7998 86.7998 -40.5996
c8.40039 -10.2002 7.10059 -25.3008 -3.09961 -33.8008c-10.6006 -8.89941 -25.7002 -6.69922 -33.7998 3c-24.8008 29.7002 -75 29.7002 -99.8008 0c-8.5 -10.1992 -23.5996 -11.5 -33.7998 -3s-11.5996 23.6006 -3.09961 33.8008
c21.5996 25.7998 53.2002 40.5996 86.7998 40.5996zM200 208c0 -17.7002 -14.2998 -32.0996 -32 -32.0996s-32 14.2998 -32 32c0 6.19922 2.2002 11.6992 5.2998 16.5996l-28.2002 8.5c-12.6992 3.7998 -19.8994 17.2002 -16.0996 29.9004
c3.7998 12.6992 17.0996 20 29.9004 16.0996l80 -24c12.6992 -3.7998 19.8994 -17.2002 16.0996 -29.9004c-3.09961 -10.3994 -12.7002 -17.0996 -23 -17.0996zM399 262.9c3.7998 -12.7002 -3.40039 -26.1006 -16.0996 -29.8008l-28.2002 -8.5
c3.09961 -4.89941 5.2998 -10.3994 5.2998 -16.5996c0 -17.7002 -14.2998 -32 -32 -32s-32 14.2998 -32 32c-10.2998 0 -19.9004 6.7002 -23 17.0996c-3.7998 12.7002 3.40039 26.1006 16.0996 29.9004l80 24c12.8008 3.7998 26.1006 -3.40039 29.9004 -16.0996z" />
    <glyph glyph-name="dizzy" unicode="&#xf567;" 
d="M248 440c137 0 248 -111 248 -248s-111 -248 -248 -248s-248 111 -248 248s111 248 248 248zM248 -8c110.3 0 200 89.7002 200 200s-89.7002 200 -200 200s-200 -89.7002 -200 -200s89.7002 -200 200 -200zM214.2 209.9
c-7.90039 -7.90039 -20.5 -7.90039 -28.4004 -0.200195l-17.7998 17.7998l-17.7998 -17.7998c-7.7998 -7.7998 -20.5 -7.7998 -28.2998 0c-7.80078 7.7998 -7.80078 20.5 0 28.2998l17.8994 17.9004l-17.8994 17.8994c-7.80078 7.7998 -7.80078 20.5 0 28.2998
c7.7998 7.80078 20.5 7.80078 28.2998 0l17.7998 -17.7998l17.9004 17.9004c7.7998 7.7998 20.5 7.7998 28.2998 0s7.7998 -20.5 0 -28.2998l-17.9004 -17.9004l17.9004 -17.7998c7.7998 -7.7998 7.7998 -20.5 0 -28.2998zM374.2 302.1
c7.7002 -7.7998 7.7002 -20.3994 0 -28.1992l-17.9004 -17.9004l17.7998 -18c7.80078 -7.7998 7.80078 -20.5 0 -28.2998c-7.7998 -7.7998 -20.5 -7.7998 -28.2998 0l-17.7998 17.7998l-17.7998 -17.7998c-7.7998 -7.7998 -20.5 -7.7998 -28.2998 0
c-7.80078 7.7998 -7.80078 20.5 0 28.2998l17.8994 17.9004l-17.8994 17.8994c-7.80078 7.7998 -7.80078 20.5 0 28.2998c7.7998 7.80078 20.5 7.80078 28.2998 0l17.7998 -17.7998l17.9004 17.7998c7.7998 7.80078 20.5 7.80078 28.2998 0zM248 176
c35.2998 0 64 -28.7002 64 -64s-28.7002 -64 -64 -64s-64 28.7002 -64 64s28.7002 64 64 64z" />
    <glyph glyph-name="flushed" unicode="&#xf579;" 
d="M248 440c137 0 248 -111 248 -248s-111 -248 -248 -248s-248 111 -248 248s111 248 248 248zM248 -8c110.3 0 200 89.7002 200 200s-89.7002 200 -200 200s-200 -89.7002 -200 -200s89.7002 -200 200 -200zM344 304c44.2002 0 80 -35.7998 80 -80s-35.7998 -80 -80 -80
s-80 35.7998 -80 80s35.7998 80 80 80zM344 176c26.5 0 48 21.5 48 48s-21.5 48 -48 48s-48 -21.5 -48 -48s21.5 -48 48 -48zM344 248c13.2998 0 24 -10.7002 24 -24s-10.7002 -24 -24 -24s-24 10.7002 -24 24s10.7002 24 24 24zM232 224c0 -44.2002 -35.7998 -80 -80 -80
s-80 35.7998 -80 80s35.7998 80 80 80s80 -35.7998 80 -80zM152 176c26.5 0 48 21.5 48 48s-21.5 48 -48 48s-48 -21.5 -48 -48s21.5 -48 48 -48zM152 248c13.2998 0 24 -10.7002 24 -24s-10.7002 -24 -24 -24s-24 10.7002 -24 24s10.7002 24 24 24zM312 104
c13.2002 0 24 -10.7998 24 -24s-10.7998 -24 -24 -24h-128c-13.2002 0 -24 10.7998 -24 24s10.7998 24 24 24h128z" />
    <glyph glyph-name="frown-open" unicode="&#xf57a;" 
d="M248 440c137 0 248 -111 248 -248s-111 -248 -248 -248s-248 111 -248 248s111 248 248 248zM248 -8c110.3 0 200 89.7002 200 200s-89.7002 200 -200 200s-200 -89.7002 -200 -200s89.7002 -200 200 -200zM200 240c0 -17.7002 -14.2998 -32 -32 -32s-32 14.2998 -32 32
s14.2998 32 32 32s32 -14.2998 32 -32zM328 272c17.7002 0 32 -14.2998 32 -32s-14.2998 -32 -32 -32s-32 14.2998 -32 32s14.2998 32 32 32zM248 160c35.5996 0 88.7998 -21.2998 95.7998 -61.2002c2 -11.7998 -9.09961 -21.5996 -20.5 -18.0996
c-31.2002 9.59961 -59.3994 15.2998 -75.2998 15.2998s-44.0996 -5.7002 -75.2998 -15.2998c-11.5 -3.40039 -22.5 6.2998 -20.5 18.0996c7 39.9004 60.2002 61.2002 95.7998 61.2002z" />
    <glyph glyph-name="globe-africa" unicode="&#xf57c;" 
d="M248 440c136.96 0 248 -111.03 248 -248s-111.04 -248 -248 -248s-248 111.03 -248 248s111.04 248 248 248zM248 -8c110.28 0 200 89.7197 200.02 200.01c0 16.5703 -2.25 32.5898 -6.06934 48h-18.4404c-8.55957 0 -15.5 -6.93945 -15.5 -15.5v-6.92969
c0 -5.87012 -3.31934 -11.2402 -8.56934 -13.8604l-15.3906 -7.7002c-2.08203 -1.03711 -4.45996 -1.62012 -6.94238 -1.62012c-3.17383 0 -6.12695 0.954102 -8.58789 2.59082l-18.21 12.1396c-3.97949 2.66016 -8.95996 3.32031 -13.5 1.81055l-2.64941 -0.880859
c-9.69043 -3.22949 -13.6602 -14.7998 -7.99023 -23.2998l13.2402 -19.8594c2.87012 -4.31055 7.70996 -6.90039 12.8896 -6.90039h8.20996c8.56055 0 15.5 -6.94043 15.5 -15.5v-11.3398c0 -3.35059 -1.08984 -6.62012 -3.09961 -9.2998l-18.7402 -24.9805
c-1.41992 -1.89941 -2.38965 -4.09961 -2.83008 -6.42969l-4.2998 -22.8301c-0.620117 -3.2998 -2.29004 -6.2998 -4.75977 -8.56055c-9.51562 -8.71289 -17.8174 -18.3887 -25 -29.1592l-13.0303 -19.5508c-5.15039 -7.71973 -13.8096 -12.3594 -23.0898 -12.3594
c-10.5098 0 -20.1201 5.93945 -24.8203 15.3398c-5.47949 10.96 -8.33008 23.04 -8.33008 35.29v29.8799c0 8.55957 -6.93945 15.5 -15.5 15.5h-25.8799c-15.0752 0.000976562 -28.7402 6.1123 -38.6299 16c-10.2402 10.25 -16 24.1396 -16 38.6299v14.0605
c0 17.873 8.56934 33.7285 21.8701 43.6797l27.5801 20.6895c9.45996 7.10059 20.96 10.9307 32.7803 10.9307h0.889648c8.75684 -0.00292969 17.0898 -2.10156 24.4297 -5.77051l14.7197 -7.35938c3.68066 -1.84082 7.93066 -2.14062 11.8301 -0.84082l47.3105 15.7705
c6.33008 2.11035 10.5996 8.03027 10.5996 14.7002c0 8.55957 -6.93945 15.5 -15.5 15.5h-10.0898c-4.11035 0 -8.0498 1.62988 -10.96 4.54004l-6.91992 6.91992c-2.91016 2.91016 -6.84961 4.54004 -10.96 4.54004h-90.0898c-8.56055 0 -15.5 6.93945 -15.5 15.5v4.39941
c0 0.00390625 0.00683594 0.00488281 0.00683594 0.00878906c0 7.25391 4.99609 13.3496 11.7334 15.0312l14.4492 3.61035c3.74023 0.94043 7 3.22949 9.14062 6.44043l8.08008 12.1094c2.86914 4.31055 7.70996 6.90039 12.8896 6.90039h24.21
c8.55957 0 15.5 6.93945 15.5 15.5v21.7002c-10.4502 1.68945 -21.0801 2.80957 -32 2.80957c-110.28 0 -200 -89.7197 -200 -200s89.7197 -200 200 -200z" />
    <glyph glyph-name="globe-americas" unicode="&#xf57d;" 
d="M248 440c137 0 248 -111 248 -248s-111 -248 -248 -248s-248 111 -248 248s111 248 248 248zM216 389.2c-16.5 -2.7002 -32.2998 -7.2002 -47.2002 -13.6006l24 -12c10.7002 -5.2998 23.2002 2.40039 23.2002 14.3008v11.2998zM248 19.4004
c1.7002 12.5996 -7.59961 36.1992 -22.5996 51.2998c-6 6 -9.40039 14.0996 -9.40039 22.5996v32c0 11.7002 -6.2998 22.4004 -16.5 28c-14.4004 7.90039 -34.7998 19.1006 -48.7998 26.1006c-11.4004 5.7998 -22.1006 13.1992 -31.6006 21.7998l-0.799805 0.700195
c-6.89941 6.09961 -12.8994 13.0996 -18.0996 20.6992c-9.40039 13.7002 -24.7002 36.4004 -34.6006 51.1006c-11.1992 -25 -17.5996 -52.6006 -17.5996 -81.7002c0 -110.3 89.7002 -200 200 -200v27.4004zM290.7 -3.2998c81.5996 17.7998 144.7 85.7002 155.5 169.7
l-29.2002 7.2998c-5.7002 1.5 -10.7998 5 -14.0996 10l-18 27c-5.40039 8 -5.40039 18.5 0 26.5996l19.5996 29.4004c2.2998 3.39941 5.5 6.2002 9.2002 8.09961l13 6.5c-32.9004 65.5 -100.5 110.7 -178.7 110.7c-2.59961 0 -5.09961 -0.299805 -7.59961 -0.400391
l28.2998 -28.2998c6.2002 -6.2002 6.2002 -16.3994 0 -22.5996l-4.7002 -4.7002l-10.2998 -10.2998c-3.10059 -3.10059 -3.10059 -8.2002 0 -11.2998l4.7002 -4.7002c3.09961 -3.10059 3.09961 -8.2002 0 -11.2998l-8 -8c-1.5 -1.5 -3.60059 -2.30078 -5.7002 -2.30078h-9
c-2.10059 0 -4.10059 -0.799805 -5.60059 -2.2998l-9.89941 -9.59961c-2.5 -2.40039 -3.2002 -6.2002 -1.60059 -9.2998l15.6006 -31.2002c2.59961 -5.2998 -1.2002 -11.6006 -7.2002 -11.6006h-5.59961c-1.90039 0 -3.7002 0.700195 -5.2002 2l-9.2998 8.10059
c-4.2002 3.7002 -10.1006 4.89941 -15.5 3.09961l-31.2002 -10.3994c-4.90039 -1.60059 -8.2002 -6.2002 -8.2002 -11.3008c0 -4.5 2.59961 -8.69922 6.59961 -10.6992l11.1006 -5.5c9.39941 -4.7002 19.7998 -7.2002 30.2998 -7.2002s22.5996 -27.2998 32 -32h66.9004
c8.5 0 16.5996 -3.40039 22.5996 -9.40039l13.7002 -13.7002c5.7002 -5.69922 8.89941 -13.5 8.89941 -21.5996c0 -12.4004 -4.89941 -24.2998 -13.6992 -33l-11.3008 -11.2998c-3 -3 -5.09961 -6.7002 -6.19922 -10.7002c-1.5 -5.7002 -2.80078 -11.4004 -4.80078 -16.9004
z" />
    <glyph glyph-name="globe-asia" unicode="&#xf57e;" 
d="M403.31 125.51c3 -3 4.69043 -7.06934 4.7002 -11.3096v-24.6201c0 -4.24023 -1.68945 -8.31055 -4.68945 -11.3105l-9.57031 -9.56934c-3 -3 -7.07031 -4.69043 -11.3096 -4.69043h-15.1602c-4.24023 0 -8.31055 1.69043 -11.3105 4.69043l-13.0098 13.0098
c-6.65039 6.65039 -16.2998 9.32031 -25.4199 7.04004l-21.2705 -5.32031c-1.26953 -0.319336 -2.56934 -0.479492 -3.87988 -0.479492h-10.3398c-4.24023 0 -8.30957 1.68945 -11.3096 4.68945l-11.9102 11.9102c-1.5 1.5 -2.33984 3.54004 -2.33984 5.66016v10.21
c0 0.00195312 -0.00488281 0 -0.00488281 0.000976562c0 3.36719 2.08594 6.25098 5.03418 7.42871l39.3408 15.7402c1.99023 0.791016 3.87109 1.82227 5.58984 3.0498l23.71 16.8906c1.34961 0.959961 2.97949 1.47949 4.63965 1.47949h12.0898
c3.33105 0 6.18555 -2.0332 7.39062 -4.92969l5.34961 -12.8496c0.600586 -1.44531 2.02344 -2.46094 3.68457 -2.46094h0.00585938h3.7998c0.000976562 0 0.000976562 0.000976562 0.00195312 0.000976562c1.81836 0 3.35449 1.2168 3.83789 2.87988l4.2002 14.4697
c0.490234 1.7002 2.05957 2.87988 3.83984 2.87988h6.05957c2.20996 0 4 -1.79004 4 -4v-12.9199l-0.000976562 -0.00390625c0 -2.20703 0.895508 -4.20703 2.3418 -5.65625zM248 440c136.96 0 248 -111.03 248 -248s-111.04 -248 -248 -248s-248 111.03 -248 248
s111.04 248 248 248zM248 -8c110.28 0 200 89.7197 200 200c0 88.7695 -58.1699 164.12 -138.37 190.16l-50.1602 -38.5303c-5.10938 -3.41016 -4.62988 -11.0596 0.860352 -13.8096l10.8301 -5.41016c5.41992 -2.70996 8.83984 -8.25 8.83984 -14.3105v-78.1094
c0 -4.41992 -3.58008 -8 -8 -8h-3.07031c-3.12988 0 -5.83789 1.7959 -7.14941 4.41992c-1.56055 3.12988 -5.95996 3.2998 -7.76074 0.299805l-17.3691 -28.9502c-2.89062 -4.81934 -8.10059 -7.76953 -13.7207 -7.76953h-0.30957
c-4.24023 0 -8.31055 -1.69043 -11.3105 -4.69043l-5.65918 -5.66016c-3.12012 -3.12012 -3.12012 -8.18945 0 -11.3096l5.65918 -5.66016c3 -3 4.69043 -7.07031 4.69043 -11.3096v-9.37012c0 -8.83984 -7.16016 -16 -16 -16h-6.09961
c-6.06055 0 -11.6006 3.42969 -14.3105 8.84961l-22.6201 45.2305c-2.43945 4.87988 -8.9502 5.93945 -12.8096 2.08008l-19.4697 -19.46c-3 -3 -7.07031 -4.69043 -11.3105 -4.69043h-62.5703c15.3906 -95.0898 97.8203 -168 197.19 -168z" />
    <glyph glyph-name="grimace" unicode="&#xf57f;" 
d="M248 440c137 0 248 -111 248 -248s-111 -248 -248 -248s-248 111 -248 248s111 248 248 248zM248 -8c110.3 0 200 89.7002 200 200s-89.7002 200 -200 200s-200 -89.7002 -200 -200s89.7002 -200 200 -200zM168 208c-17.7002 0 -32 14.2998 -32 32s14.2998 32 32 32
s32 -14.2998 32 -32s-14.2998 -32 -32 -32zM328 208c-17.7002 0 -32 14.2998 -32 32s14.2998 32 32 32s32 -14.2998 32 -32s-14.2998 -32 -32 -32zM344 192c26.5 0 48 -21.5 48 -48v-32c0 -26.5 -21.5 -48 -48 -48h-192c-26.5 0 -48 21.5 -48 48v32c0 26.5 21.5 48 48 48
h192zM176 96v24h-40v-8c0 -8.7998 7.2002 -16 16 -16h24zM176 136v24h-24c-8.7998 0 -16 -7.2002 -16 -16v-8h40zM240 96v24h-48v-24h48zM240 136v24h-48v-24h48zM304 96v24h-48v-24h48zM304 136v24h-48v-24h48zM360 112v8h-40v-24h24c8.7998 0 16 7.2002 16 16zM360 136v8
c0 8.7998 -7.2002 16 -16 16h-24v-24h40z" />
    <glyph glyph-name="grin" unicode="&#xf580;" 
d="M248 440c137 0 248 -111 248 -248s-111 -248 -248 -248s-248 111 -248 248s111 248 248 248zM248 -8c110.3 0 200 89.7002 200 200s-89.7002 200 -200 200s-200 -89.7002 -200 -200s89.7002 -200 200 -200zM353.6 143.4c10 3.09961 19.3008 -5.5 17.7002 -15.3008
c-8 -47.0996 -71.2998 -80 -123.3 -80s-115.4 32.9004 -123.3 80c-1.7002 9.90039 7.7998 18.4004 17.7002 15.3008c26 -8.30078 64.3994 -13.1006 105.6 -13.1006s79.7002 4.7998 105.6 13.1006zM168 208c-17.7002 0 -32 14.2998 -32 32s14.2998 32 32 32
s32 -14.2998 32 -32s-14.2998 -32 -32 -32zM328 208c-17.7002 0 -32 14.2998 -32 32s14.2998 32 32 32s32 -14.2998 32 -32s-14.2998 -32 -32 -32z" />
    <glyph glyph-name="grin-alt" unicode="&#xf581;" 
d="M200.3 200c-7.5 -11.4004 -24.5996 -12 -32.7002 0c-12.3994 18.7002 -15.1992 37.2998 -15.6992 56c0.599609 18.7002 3.2998 37.2998 15.6992 56c7.60059 11.4004 24.7002 12 32.7002 0c12.4004 -18.7002 15.2002 -37.2998 15.7002 -56
c-0.599609 -18.7002 -3.2998 -37.2998 -15.7002 -56zM328.3 200c-7.5 -11.4004 -24.5996 -12 -32.7002 0c-12.3994 18.7002 -15.1992 37.2998 -15.6992 56c0.599609 18.7002 3.2998 37.2998 15.6992 56c7.60059 11.4004 24.7002 12 32.7002 0
c12.4004 -18.7002 15.2002 -37.2998 15.7002 -56c-0.599609 -18.7002 -3.2998 -37.2998 -15.7002 -56zM248 440c137 0 248 -111 248 -248s-111 -248 -248 -248s-248 111 -248 248s111 248 248 248zM248 -8c110.3 0 200 89.7002 200 200s-89.7002 200 -200 200
s-200 -89.7002 -200 -200s89.7002 -200 200 -200zM353.6 143.4c10 3.09961 19.3008 -5.5 17.7002 -15.3008c-8 -47.0996 -71.2998 -80 -123.3 -80s-115.4 32.8008 -123.3 80c-1.7002 10 7.7998 18.4004 17.7002 15.3008c26 -8.30078 64.3994 -13.1006 105.6 -13.1006
s79.7002 4.7998 105.6 13.1006z" />
    <glyph glyph-name="grin-beam" unicode="&#xf582;" 
d="M248 440c137 0 248 -111 248 -248s-111 -248 -248 -248s-248 111 -248 248s111 248 248 248zM248 -8c110.3 0 200 89.7002 200 200s-89.7002 200 -200 200s-200 -89.7002 -200 -200s89.7002 -200 200 -200zM353.6 143.4c10 3.09961 19.3008 -5.5 17.7002 -15.3008
c-8 -47.0996 -71.2998 -80 -123.3 -80s-115.4 32.9004 -123.3 80c-1.7002 10 7.89941 18.4004 17.7002 15.3008c26 -8.30078 64.3994 -13.1006 105.6 -13.1006s79.7002 4.7998 105.6 13.1006zM117.7 216.3c-3.60059 1.10059 -6 4.60059 -5.7002 8.2998
c3.2998 42.1006 32.2002 71.4004 56 71.4004s52.7002 -29.2998 56 -71.4004c0.299805 -3.7998 -2.09961 -7.19922 -5.7002 -8.2998c-3.09961 -1 -7.2002 0 -9.2998 3.7002l-9.5 17c-7.7002 13.7002 -19.2002 21.5996 -31.5 21.5996s-23.7998 -7.89941 -31.5 -21.5996
l-9.5 -17c-1.90039 -3.2002 -5.7998 -4.7998 -9.2998 -3.7002zM277.7 216.3c-3.60059 1.10059 -6 4.60059 -5.7002 8.2998c3.2998 42.1006 32.2002 71.4004 56 71.4004s52.7002 -29.2998 56 -71.4004c0.299805 -3.7998 -2.09961 -7.19922 -5.7002 -8.2998
c-3.09961 -1 -7.2002 0 -9.2998 3.7002l-9.5 17c-7.7002 13.7002 -19.2002 21.5996 -31.5 21.5996s-23.7998 -7.89941 -31.5 -21.5996l-9.5 -17c-1.90039 -3.2002 -5.7998 -4.7998 -9.2998 -3.7002z" />
    <glyph glyph-name="grin-beam-sweat" unicode="&#xf583;" 
d="M440 288c-29.5 0 -53.2998 26.2998 -53.2998 58.7002c0 25 31.7002 75.5 46.2002 97.2998c3.5 5.2998 10.5996 5.2998 14.1992 0c14.5 -21.7998 46.2002 -72.2998 46.2002 -97.2998c0 -32.4004 -23.7998 -58.7002 -53.2998 -58.7002zM248 48
c-51.9004 0 -115.3 32.9004 -123.3 80c-1.7002 10 7.89941 18.4004 17.7002 15.2998c26 -8.2998 64.3994 -13.0996 105.6 -13.0996s79.7002 4.7998 105.6 13.0996c10 3.2002 19.4004 -5.39941 17.7002 -15.2998c-8 -47.0996 -71.3994 -80 -123.3 -80zM378.3 216.3
c-3.09961 -0.899414 -7.2002 0.100586 -9.2998 3.7002l-9.5 17c-7.7002 13.7002 -19.2002 21.5996 -31.5 21.5996s-23.7998 -7.89941 -31.5 -21.5996l-9.5 -17c-1.90039 -3.2002 -5.7998 -4.7998 -9.2998 -3.7002c-3.60059 1.10059 -6 4.60059 -5.7002 8.2998
c3.2998 42.1006 32.2002 71.4004 56 71.4004s52.7002 -29.2998 56 -71.4004c0.299805 -3.7998 -2.09961 -7.19922 -5.7002 -8.2998zM483.6 269.2c8 -24.2998 12.4004 -50.2002 12.4004 -77.2002c0 -137 -111 -248 -248 -248s-248 111 -248 248s111 248 248 248
c45.7002 0 88.4004 -12.5996 125.2 -34.2002c-10.9004 -21.5996 -15.5 -36.2002 -17.2002 -45.7002c-31.2002 20.1006 -68.2002 31.9004 -108 31.9004c-110.3 0 -200 -89.7002 -200 -200s89.7002 -200 200 -200s200 89.7002 200 200
c0 22.5 -3.90039 44.0996 -10.7998 64.2998c0.399414 0 21.7998 -2.7998 46.3994 12.9004zM168 258.6c-12.2998 0 -23.7998 -7.7998 -31.5 -21.5996l-9.5 -17c-1.90039 -3.2002 -5.7998 -4.7998 -9.2998 -3.7002c-3.60059 1.10059 -6 4.60059 -5.7002 8.2998
c3.2998 42.1006 32.2002 71.4004 56 71.4004s52.7002 -29.2998 56 -71.4004c0.299805 -3.7998 -2.09961 -7.19922 -5.7002 -8.2998c-3.09961 -1 -7.2002 0 -9.2998 3.7002l-9.5 17c-7.7002 13.7002 -19.2002 21.5996 -31.5 21.5996z" />
    <glyph glyph-name="grin-hearts" unicode="&#xf584;" 
d="M353.6 143.4c10 3.09961 19.3008 -5.5 17.7002 -15.3008c-8 -47.0996 -71.2998 -80 -123.3 -80s-115.4 32.8008 -123.3 80c-1.7002 10 7.89941 18.4004 17.7002 15.3008c26 -8.30078 64.3994 -13.1006 105.6 -13.1006s79.7002 4.7998 105.6 13.1006zM200.8 192.3
l-70.2002 18.1006c-20.3994 5.2998 -31.8994 27 -24.1992 47.1992c6.69922 17.7002 26.6992 26.7002 44.8994 22l7.10059 -1.89941l2 7.09961c5.09961 18.1006 22.8994 30.9004 41.5 27.9004c21.3994 -3.40039 34.3994 -24.2002 28.7998 -44.5l-19.4004 -69.9004
c-1.2998 -4.5 -6 -7.2002 -10.5 -6zM389.6 257.6c7.7002 -20.1992 -3.7998 -41.7998 -24.1992 -47.0996l-70.2002 -18.2002c-4.60059 -1.2002 -9.2998 1.5 -10.5 6l-19.4004 69.9004c-5.59961 20.2998 7.40039 41.0996 28.7998 44.5c18.7002 3 36.5 -9.7998 41.5 -27.9004
l2 -7.09961l7.10059 1.89941c18.2002 4.7002 38.2002 -4.39941 44.8994 -22zM248 440c137 0 248 -111 248 -248s-111 -248 -248 -248s-248 111 -248 248s111 248 248 248zM248 -8c110.3 0 200 89.7002 200 200s-89.7002 200 -200 200s-200 -89.7002 -200 -200
s89.7002 -200 200 -200z" />
    <glyph glyph-name="grin-squint" unicode="&#xf585;" 
d="M248 440c137 0 248 -111 248 -248s-111 -248 -248 -248s-248 111 -248 248s111 248 248 248zM248 -8c110.3 0 200 89.7002 200 200s-89.7002 200 -200 200s-200 -89.7002 -200 -200s89.7002 -200 200 -200zM353.6 143.4c10 3.09961 19.3008 -5.5 17.7002 -15.3008
c-8 -47.0996 -71.2998 -80 -123.3 -80s-115.4 32.9004 -123.3 80c-1.7002 9.90039 7.7998 18.4004 17.7002 15.3008c26 -8.30078 64.3994 -13.1006 105.6 -13.1006s79.7002 4.7998 105.6 13.1006zM118.9 184.2c-3.80078 4.39941 -3.90039 11 -0.100586 15.5l33.6006 40.2998
l-33.6006 40.2998c-3.7002 4.5 -3.7002 11 0.100586 15.5c3.89941 4.40039 10.1992 5.5 15.2998 2.5l80 -48c3.59961 -2.2002 5.7998 -6.09961 5.7998 -10.2998s-2.2002 -8.09961 -5.7998 -10.2998l-80 -48c-5.40039 -3.2002 -11.7002 -1.7002 -15.2998 2.5zM361.8 181.7
l-80 48c-3.59961 2.2002 -5.7998 6.09961 -5.7998 10.2998s2.2002 8.09961 5.7998 10.2998l80 48c5.10059 2.90039 11.5 1.90039 15.2998 -2.5c3.80078 -4.5 3.90039 -11 0.100586 -15.5l-33.6006 -40.2998l33.6006 -40.2998c3.7002 -4.5 3.7002 -11 -0.100586 -15.5
c-3.59961 -4.2002 -9.89941 -5.7002 -15.2998 -2.5z" />
    <glyph glyph-name="grin-stars" unicode="&#xf587;" 
d="M248 440c137 0 248 -111 248 -248s-111 -248 -248 -248s-248 111 -248 248s111 248 248 248zM248 -8c110.3 0 200 89.7002 200 200s-89.7002 200 -200 200s-200 -89.7002 -200 -200s89.7002 -200 200 -200zM353.6 143.4c10 3.09961 19.3008 -5.5 17.7002 -15.3008
c-8 -47.0996 -71.2998 -80 -123.3 -80s-115.4 32.8008 -123.3 80c-1.7002 10 7.89941 18.4004 17.7002 15.3008c26 -8.30078 64.3994 -13.1006 105.6 -13.1006s79.7002 4.7998 105.6 13.1006zM125.7 200.9l6.09961 34.8994l-25.3994 24.6006
c-4.60059 4.59961 -1.90039 12.2998 4.2998 13.1992l34.8994 5l15.5 31.6006c2.90039 5.7998 11 5.7998 13.9004 0l15.5 -31.6006l34.9004 -5c6.19922 -1 8.7998 -8.69922 4.2998 -13.1992l-25.4004 -24.6006l6 -34.8994c1 -6.2002 -5.39941 -11 -11 -7.90039
l-31.2998 16.2998l-31.2998 -16.2998c-5.60059 -3.09961 -12 1.7002 -11 7.90039zM385.4 273.6c6.19922 -1 8.89941 -8.59961 4.39941 -13.1992l-25.3994 -24.6006l6 -34.8994c1 -6.2002 -5.40039 -11 -11 -7.90039l-31.3008 16.2998l-31.2998 -16.2998
c-5.59961 -3.09961 -12 1.7002 -11 7.90039l6 34.8994l-25.3994 24.6006c-4.60059 4.59961 -1.90039 12.2998 4.2998 13.1992l34.8994 5l15.5 31.6006c2.90039 5.7998 11 5.7998 13.9004 0l15.5 -31.6006z" />
    <glyph glyph-name="grin-tongue" unicode="&#xf589;" 
d="M248 440c137 0 248 -111 248 -248s-111 -248 -248 -248s-248 111 -248 248s111 248 248 248zM312 40h0.0996094v43.7998l-17.6992 8.7998c-15.1006 7.60059 -31.5 -1.69922 -34.9004 -16.5l-2.7998 -12.0996c-2.10059 -9.2002 -15.2002 -9.2002 -17.2998 0
l-2.80078 12.0996c-3.39941 14.8008 -19.8994 24 -34.8994 16.5l-17.7002 -8.7998v-42.7998c0 -35.2002 28 -64.5 63.0996 -65c35.8008 -0.5 64.9004 28.4004 64.9004 64zM340.2 14.7002c64 33.3994 107.8 100.3 107.8 177.3c0 110.3 -89.7002 200 -200 200
s-200 -89.7002 -200 -200c0 -77 43.7998 -143.9 107.8 -177.3c-2.2002 8.09961 -3.7998 16.5 -3.7998 25.2998v43.5c-14.2002 12.4004 -24.4004 27.5 -27.2998 44.5c-1.7002 10 7.7998 18.4004 17.7002 15.2998c26 -8.2998 64.3994 -13.0996 105.6 -13.0996
s79.7002 4.7998 105.6 13.0996c10 3.2002 19.4004 -5.39941 17.7002 -15.2998c-2.89941 -17 -13.0996 -32.0996 -27.2998 -44.5v-43.5c0 -8.7998 -1.59961 -17.2002 -3.7998 -25.2998zM168 272c17.7002 0 32 -14.2998 32 -32s-14.2998 -32 -32 -32s-32 14.2998 -32 32
s14.2998 32 32 32zM328 272c17.7002 0 32 -14.2998 32 -32s-14.2998 -32 -32 -32s-32 14.2998 -32 32s14.2998 32 32 32z" />
    <glyph glyph-name="grin-tongue-squint" unicode="&#xf58a;" 
d="M248 440c137 0 248 -111 248 -248s-111 -248 -248 -248s-248 111 -248 248s111 248 248 248zM312 40h0.0996094v43.7998l-17.6992 8.7998c-15.1006 7.60059 -31.5 -1.69922 -34.9004 -16.5l-2.7998 -12.0996c-2.10059 -9.2002 -15.2002 -9.2002 -17.2998 0
l-2.80078 12.0996c-3.39941 14.8008 -19.8994 24 -34.8994 16.5l-17.7002 -8.7998v-42.7998c0 -35.2002 28 -64.5 63.0996 -65c35.8008 -0.5 64.9004 28.4004 64.9004 64zM340.2 14.7002c64 33.3994 107.8 100.3 107.8 177.3c0 110.3 -89.7002 200 -200 200
s-200 -89.7002 -200 -200c0 -77 43.7998 -143.9 107.8 -177.3c-2.2002 8.09961 -3.7998 16.5 -3.7998 25.2998v43.5c-14.2002 12.4004 -24.4004 27.5 -27.2998 44.5c-1.7002 10 7.7998 18.4004 17.7002 15.2998c26 -8.2998 64.3994 -13.0996 105.6 -13.0996
s79.7002 4.7998 105.6 13.0996c10 3.2002 19.4004 -5.39941 17.7002 -15.2998c-2.89941 -17 -13.0996 -32.0996 -27.2998 -44.5v-43.5c0 -8.7998 -1.59961 -17.2002 -3.7998 -25.2998zM377.1 295.8c3.80078 -4.39941 3.90039 -11 0.100586 -15.5l-33.6006 -40.2998
l33.6006 -40.2998c3.7002 -4.5 3.7002 -11 -0.100586 -15.5c-3.59961 -4.2002 -9.89941 -5.7002 -15.2998 -2.5l-80 48c-3.59961 2.2002 -5.7998 6.09961 -5.7998 10.2998s2.2002 8.09961 5.7998 10.2998l80 48c5 3 11.5 1.90039 15.2998 -2.5zM214.2 250.3
c3.59961 -2.2002 5.7998 -6.09961 5.7998 -10.2998s-2.2002 -8.09961 -5.7998 -10.2998l-80 -48c-5.40039 -3.2002 -11.7002 -1.7002 -15.2998 2.5c-3.80078 4.5 -3.90039 11 -0.100586 15.5l33.6006 40.2998l-33.6006 40.2998c-3.7002 4.5 -3.7002 11 0.100586 15.5
c3.89941 4.5 10.2998 5.5 15.2998 2.5z" />
    <glyph glyph-name="grin-wink" unicode="&#xf58c;" 
d="M328 268c25.6904 0 55.8799 -16.9199 59.8701 -42.1201c1.72949 -11.0898 -11.3506 -18.2695 -19.8301 -10.8398l-9.5498 8.47949c-14.8105 13.1904 -46.1602 13.1904 -60.9707 0l-9.5498 -8.47949c-8.33008 -7.40039 -21.5801 -0.379883 -19.8301 10.8398
c3.98047 25.2002 34.1699 42.1201 59.8604 42.1201zM168 208c-17.6699 0 -32 14.3301 -32 32s14.3301 32 32 32s32 -14.3301 32 -32s-14.3301 -32 -32 -32zM353.55 143.36c10.04 3.13965 19.3906 -5.4502 17.71 -15.3408
c-7.92969 -47.1494 -71.3193 -80.0195 -123.26 -80.0195s-115.33 32.8701 -123.26 80.0195c-1.69043 9.9707 7.76953 18.4707 17.71 15.3408c25.9297 -8.31055 64.3994 -13.0605 105.55 -13.0605s79.6201 4.75977 105.55 13.0605zM248 440c136.97 0 248 -111.03 248 -248
s-111.03 -248 -248 -248s-248 111.03 -248 248s111.03 248 248 248zM248 -8c110.28 0 200 89.7197 200 200s-89.7197 200 -200 200s-200 -89.7197 -200 -200s89.7197 -200 200 -200z" />
    <glyph glyph-name="kiss" unicode="&#xf596;" 
d="M168 272c17.7002 0 32 -14.2998 32 -32s-14.2998 -32 -32 -32s-32 14.2998 -32 32s14.2998 32 32 32zM304 140c0 -13 -13.4004 -27.2998 -35.0996 -36.4004c21.7998 -8.69922 35.1992 -23 35.1992 -36c0 -19.1992 -28.6992 -41.5 -71.5 -44h-0.5
c-3.69922 0 -7 2.60059 -7.7998 6.2002c-0.899414 3.7998 1.10059 7.7002 4.7002 9.2002l17 7.2002c12.9004 5.5 20.7002 13.5 20.7002 21.5s-7.7998 16 -20.7998 21.5l-16.9004 7.2002c-6 2.59961 -5.7002 12.3994 0 14.7998l17 7.2002
c12.9004 5.5 20.7002 13.5 20.7002 21.5s-7.7998 16 -20.7998 21.5l-16.9004 7.19922c-3.59961 1.5 -5.59961 5.40039 -4.7002 9.2002c0.799805 3.7998 4.40039 6.60059 8.2002 6.2002c42.7002 -2.5 71.5 -24.7998 71.5 -44zM248 440c137 0 248 -111 248 -248
s-111 -248 -248 -248s-248 111 -248 248s111 248 248 248zM248 -8c110.3 0 200 89.7002 200 200s-89.7002 200 -200 200s-200 -89.7002 -200 -200s89.7002 -200 200 -200zM328 272c17.7002 0 32 -14.2998 32 -32s-14.2998 -32 -32 -32s-32 14.2998 -32 32s14.2998 32 32 32z
" />
    <glyph glyph-name="kiss-beam" unicode="&#xf597;" 
d="M168 296c23.7998 0 52.7002 -29.2998 55.7998 -71.4004c0.299805 -3.7998 -2 -7.19922 -5.59961 -8.2998c-3.10059 -1 -7.2002 0 -9.2998 3.7002l-9.5 17c-7.7002 13.7002 -19.2002 21.5996 -31.5 21.5996c-12.3008 0 -23.8008 -7.89941 -31.5 -21.5996l-9.5 -17
c-1.80078 -3.2002 -5.80078 -4.7002 -9.30078 -3.7002c-3.59961 1.10059 -5.89941 4.60059 -5.59961 8.2998c3.2998 42.1006 32.2002 71.4004 56 71.4004zM248 440c137 0 248 -111 248 -248s-111 -248 -248 -248s-248 111 -248 248s111 248 248 248zM248 -8
c110.3 0 200 89.7002 200 200s-89.7002 200 -200 200s-200 -89.7002 -200 -200s89.7002 -200 200 -200zM304 140c0 -13 -13.4004 -27.2998 -35.0996 -36.4004c21.7998 -8.69922 35.1992 -23 35.1992 -36c0 -19.1992 -28.6992 -41.5 -71.5 -44h-0.5
c-3.69922 0 -7 2.60059 -7.7998 6.2002c-0.899414 3.7998 1.10059 7.7002 4.7002 9.2002l17 7.2002c12.9004 5.5 20.7002 13.5 20.7002 21.5s-7.7998 16 -20.7998 21.5l-16.9004 7.2002c-6 2.59961 -5.7002 12.3994 0 14.7998l17 7.2002
c12.9004 5.5 20.7002 13.5 20.7002 21.5s-7.7998 16 -20.7998 21.5l-16.9004 7.19922c-3.59961 1.5 -5.59961 5.40039 -4.7002 9.2002c0.799805 3.7998 4.40039 6.60059 8.2002 6.2002c42.7002 -2.5 71.5 -24.7998 71.5 -44zM328 296
c23.7998 0 52.7002 -29.2998 55.7998 -71.4004c0.299805 -3.7998 -2 -7.19922 -5.59961 -8.2998c-3.10059 -1 -7.2002 0 -9.2998 3.7002l-9.5 17c-7.7002 13.7002 -19.2002 21.5996 -31.5 21.5996c-12.3008 0 -23.8008 -7.89941 -31.5 -21.5996l-9.5 -17
c-1.80078 -3.2002 -5.80078 -4.7002 -9.30078 -3.7002c-3.59961 1.10059 -5.89941 4.60059 -5.59961 8.2998c3.2998 42.1006 32.2002 71.4004 56 71.4004z" />
    <glyph glyph-name="kiss-wink-heart" unicode="&#xf598;" horiz-adv-x="504" 
d="M304 139.5c0 -13 -13.4004 -27.2998 -35.0996 -36.4004c21.7998 -8.69922 35.1992 -23 35.1992 -36c0 -19.1992 -28.6992 -41.5 -71.5 -44h-0.5c-3.69922 0 -7 2.60059 -7.7998 6.2002c-0.899414 3.7998 1.10059 7.7002 4.7002 9.2002l17 7.2002
c12.9004 5.5 20.7002 13.5 20.7002 21.5s-7.7998 16 -20.7998 21.5l-16.9004 7.2002c-6 2.59961 -5.7002 12.3994 0 14.7998l17 7.2002c12.9004 5.5 20.7002 13.5 20.7002 21.5s-7.7998 16 -20.7998 21.5l-16.9004 7.19922c-3.59961 1.5 -5.59961 5.40039 -4.7002 9.2002
c0.799805 3.7998 4.40039 6.60059 8.2002 6.2002c42.7002 -2.5 71.5 -24.7998 71.5 -44zM374.5 223c-14.7998 13.2002 -46.2002 13.2002 -61 0l-9.5 -8.5c-2.5 -2.2998 -7.90039 -4.7002 -13.7002 -1.59961c-4.39941 2.39941 -6.89941 7.39941 -6.09961 12.3994
c3.89941 25.2002 34.2002 42.1006 59.7998 42.1006s55.7998 -16.9004 59.7998 -42.1006c0.799805 -5 -1.7002 -10 -6.09961 -12.3994c-4.40039 -2.40039 -9.90039 -1.7002 -13.7002 1.59961zM136 239.5c0 17.7002 14.2998 32 32 32s32 -14.2998 32 -32s-14.2998 -32 -32 -32
s-32 14.2998 -32 32zM501.1 45.5c9.2002 -23.9004 -4.39941 -49.4004 -28.5 -55.7002l-83 -21.5c-5.39941 -1.39941 -10.8994 1.7998 -12.3994 7.10059l-22.9004 82.5996c-6.59961 24 8.7998 48.5996 34 52.5996c22 3.5 43.1006 -11.5996 49 -33l2.2998 -8.39941
l8.40039 2.2002c21.5996 5.59961 45.0996 -5.10059 53.0996 -25.9004zM334 11.7002c17.7002 -64 10.9004 -39.5 13.4004 -46.7998c-30.5 -13.4004 -64 -20.9004 -99.4004 -20.9004c-137 0 -248 111 -248 248s111 248 248 248s248 -111 247.9 -248
c0 -31.7998 -6.2002 -62.0996 -17.1006 -90c-6 1.5 -12.2002 2.7998 -18.5996 2.90039c-5.60059 9.69922 -13.6006 17.5 -22.6006 23.8994c6.7002 19.9004 10.4004 41.1006 10.4004 63.2002c0 110.3 -89.7002 200 -200 200s-200 -89.7002 -200 -200s89.7002 -200 200 -200
c30.7998 0 59.9004 7.2002 86 19.7002z" />
    <glyph glyph-name="laugh" unicode="&#xf599;" 
d="M248 440c137 0 248 -111 248 -248s-111 -248 -248 -248s-248 111 -248 248s111 248 248 248zM389.4 50.5996c37.7998 37.8008 58.5996 88 58.5996 141.4s-20.7998 103.6 -58.5996 141.4c-37.8008 37.7998 -88 58.5996 -141.4 58.5996s-103.6 -20.7998 -141.4 -58.5996
c-37.7998 -37.8008 -58.5996 -88 -58.5996 -141.4s20.7998 -103.6 58.5996 -141.4c37.8008 -37.7998 88 -58.5996 141.4 -58.5996s103.6 20.7998 141.4 58.5996zM328 224c-17.7002 0 -32 14.2998 -32 32s14.2998 32 32 32s32 -14.2998 32 -32s-14.2998 -32 -32 -32zM168 224
c-17.7002 0 -32 14.2998 -32 32s14.2998 32 32 32s32 -14.2998 32 -32s-14.2998 -32 -32 -32zM362.4 160c8.19922 0 14.5 -7 13.5 -15c-7.5 -59.2002 -58.9004 -105 -121.101 -105h-13.5996c-62.2002 0 -113.601 45.7998 -121.101 105c-1 8 5.30078 15 13.5 15h228.801z" />
    <glyph glyph-name="laugh-beam" unicode="&#xf59a;" 
d="M248 440c137 0 248 -111 248 -248s-111 -248 -248 -248s-248 111 -248 248s111 248 248 248zM389.4 50.5996c37.7998 37.8008 58.5996 88 58.5996 141.4s-20.7998 103.6 -58.5996 141.4c-37.8008 37.7998 -88 58.5996 -141.4 58.5996s-103.6 -20.7998 -141.4 -58.5996
c-37.7998 -37.8008 -58.5996 -88 -58.5996 -141.4s20.7998 -103.6 58.5996 -141.4c37.8008 -37.7998 88 -58.5996 141.4 -58.5996s103.6 20.7998 141.4 58.5996zM328 296c23.7998 0 52.7002 -29.2998 55.7998 -71.4004c0.700195 -8.5 -10.7998 -11.8994 -14.8994 -4.5
l-9.5 17c-7.7002 13.7002 -19.2002 21.6006 -31.5 21.6006c-12.3008 0 -23.8008 -7.90039 -31.5 -21.6006l-9.5 -17c-4.10059 -7.39941 -15.6006 -4.09961 -14.9004 4.5c3.2998 42.1006 32.2002 71.4004 56 71.4004zM127 220.1c-4.2002 -7.39941 -15.7002 -4 -15.0996 4.5
c3.2998 42.1006 32.1992 71.4004 56 71.4004c23.7998 0 52.6992 -29.2998 56 -71.4004c0.699219 -8.5 -10.8008 -11.8994 -14.9004 -4.5l-9.5 17c-7.7002 13.7002 -19.2002 21.6006 -31.5 21.6006s-23.7998 -7.90039 -31.5 -21.6006zM362.4 160c8.19922 0 14.5 -7 13.5 -15
c-7.5 -59.2002 -58.9004 -105 -121.101 -105h-13.5996c-62.2002 0 -113.601 45.7998 -121.101 105c-1 8 5.30078 15 13.5 15h228.801z" />
    <glyph glyph-name="laugh-squint" unicode="&#xf59b;" 
d="M248 440c137 0 248 -111 248 -248s-111 -248 -248 -248s-248 111 -248 248s111 248 248 248zM389.4 50.5996c37.7998 37.8008 58.5996 88 58.5996 141.4s-20.7998 103.6 -58.5996 141.4c-37.8008 37.7998 -88 58.5996 -141.4 58.5996s-103.6 -20.7998 -141.4 -58.5996
c-37.7998 -37.8008 -58.5996 -88 -58.5996 -141.4s20.7998 -103.6 58.5996 -141.4c37.8008 -37.7998 88 -58.5996 141.4 -58.5996s103.6 20.7998 141.4 58.5996zM343.6 252l33.6006 -40.2998c8.59961 -10.4004 -3.90039 -24.7998 -15.4004 -18l-80 48
c-7.7998 4.7002 -7.7998 15.8994 0 20.5996l80 48c11.6006 6.7998 24 -7.7002 15.4004 -18zM134.2 193.7c-11.6006 -6.7998 -24.1006 7.59961 -15.4004 18l33.6006 40.2998l-33.6006 40.2998c-8.59961 10.2998 3.7998 24.9004 15.4004 18l80 -48
c7.7998 -4.7002 7.7998 -15.8994 0 -20.5996zM362.4 160c8.19922 0 14.5 -7 13.5 -15c-7.5 -59.2002 -58.9004 -105 -121.101 -105h-13.5996c-62.2002 0 -113.601 45.7998 -121.101 105c-1 8 5.30078 15 13.5 15h228.801z" />
    <glyph glyph-name="laugh-wink" unicode="&#xf59c;" 
d="M248 440c137 0 248 -111 248 -248s-111 -248 -248 -248s-248 111 -248 248s111 248 248 248zM389.4 50.5996c37.7998 37.8008 58.5996 88 58.5996 141.4s-20.7998 103.6 -58.5996 141.4c-37.8008 37.7998 -88 58.5996 -141.4 58.5996s-103.6 -20.7998 -141.4 -58.5996
c-37.7998 -37.8008 -58.5996 -88 -58.5996 -141.4s20.7998 -103.6 58.5996 -141.4c37.8008 -37.7998 88 -58.5996 141.4 -58.5996s103.6 20.7998 141.4 58.5996zM328 284c25.7002 0 55.9004 -16.9004 59.7002 -42.0996c1.7998 -11.1006 -11.2998 -18.2002 -19.7998 -10.8008
l-9.5 8.5c-14.8008 13.2002 -46.2002 13.2002 -61 0l-9.5 -8.5c-8.30078 -7.39941 -21.5 -0.399414 -19.8008 10.8008c4 25.1992 34.2002 42.0996 59.9004 42.0996zM168 224c-17.7002 0 -32 14.2998 -32 32s14.2998 32 32 32s32 -14.2998 32 -32s-14.2998 -32 -32 -32z
M362.4 160c8.19922 0 14.5 -7 13.5 -15c-7.5 -59.2002 -58.9004 -105 -121.101 -105h-13.5996c-62.2002 0 -113.601 45.7998 -121.101 105c-1 8 5.30078 15 13.5 15h228.801z" />
    <glyph glyph-name="meh-blank" unicode="&#xf5a4;" 
d="M248 440c137 0 248 -111 248 -248s-111 -248 -248 -248s-248 111 -248 248s111 248 248 248zM248 -8c110.3 0 200 89.7002 200 200s-89.7002 200 -200 200s-200 -89.7002 -200 -200s89.7002 -200 200 -200zM168 272c17.7002 0 32 -14.2998 32 -32s-14.2998 -32 -32 -32
s-32 14.2998 -32 32s14.2998 32 32 32zM328 272c17.7002 0 32 -14.2998 32 -32s-14.2998 -32 -32 -32s-32 14.2998 -32 32s14.2998 32 32 32z" />
    <glyph glyph-name="meh-rolling-eyes" unicode="&#xf5a5;" 
d="M248 440c137 0 248 -111 248 -248s-111 -248 -248 -248s-248 111 -248 248s111 248 248 248zM248 -8c110.3 0 200 89.7002 200 200s-89.7002 200 -200 200s-200 -89.7002 -200 -200s89.7002 -200 200 -200zM336 296c39.7998 0 72 -32.2002 72 -72s-32.2002 -72 -72 -72
s-72 32.2002 -72 72s32.2002 72 72 72zM336 184c22.0996 0 40 17.9004 40 40c0 13.5996 -7.2998 25.0996 -17.7002 32.2998c1 -2.59961 1.7002 -5.39941 1.7002 -8.2998c0 -13.2998 -10.7002 -24 -24 -24s-24 10.7002 -24 24c0 3 0.700195 5.7002 1.7002 8.2998
c-10.4004 -7.2002 -17.7002 -18.7002 -17.7002 -32.2998c0 -22.0996 17.9004 -40 40 -40zM232 224c0 -39.7998 -32.2002 -72 -72 -72s-72 32.2002 -72 72s32.2002 72 72 72s72 -32.2002 72 -72zM120 224c0 -22.0996 17.9004 -40 40 -40s40 17.9004 40 40
c0 13.5996 -7.2998 25.0996 -17.7002 32.2998c1 -2.59961 1.7002 -5.39941 1.7002 -8.2998c0 -13.2998 -10.7002 -24 -24 -24s-24 10.7002 -24 24c0 3 0.700195 5.7002 1.7002 8.2998c-10.4004 -7.2002 -17.7002 -18.7002 -17.7002 -32.2998zM312 96
c13.2002 0 24 -10.7998 24 -24s-10.7998 -24 -24 -24h-128c-13.2002 0 -24 10.7998 -24 24s10.7998 24 24 24h128z" />
    <glyph glyph-name="sad-cry" unicode="&#xf5b3;" 
d="M248 440c137 0 248 -111 248 -248s-111 -248 -248 -248s-248 111 -248 248s111 248 248 248zM392 53.5996c34.5996 35.9004 56 84.7002 56 138.4c0 110.3 -89.7002 200 -200 200s-200 -89.7002 -200 -200c0 -53.7002 21.4004 -102.4 56 -138.4v114.4
c0 13.2002 10.7998 24 24 24s24 -10.7998 24 -24v-151.4c28.5 -15.5996 61.2002 -24.5996 96 -24.5996s67.5 9 96 24.5996v151.4c0 13.2002 10.7998 24 24 24s24 -10.7998 24 -24v-114.4zM205.8 213.5c-5.7998 -3.2002 -11.2002 -0.700195 -13.7002 1.59961l-9.5 8.5
c-14.7998 13.2002 -46.1992 13.2002 -61 0l-9.5 -8.5c-3.7998 -3.39941 -9.2998 -4 -13.6992 -1.59961c-4.40039 2.40039 -6.90039 7.40039 -6.10059 12.4004c3.90039 25.1992 34.2002 42.0996 59.7998 42.0996c25.6006 0 55.8008 -16.9004 59.8008 -42.0996
c0.799805 -5 -1.7002 -10 -6.10059 -12.4004zM344 268c25.7002 0 55.9004 -16.9004 59.7998 -42.0996c0.799805 -5 -1.7002 -10 -6.09961 -12.4004c-5.7002 -3.09961 -11.2002 -0.599609 -13.7002 1.59961l-9.5 8.5c-14.7998 13.2002 -46.2002 13.2002 -61 0l-9.5 -8.5
c-3.7998 -3.39941 -9.2002 -4 -13.7002 -1.59961c-4.39941 2.40039 -6.89941 7.40039 -6.09961 12.4004c3.89941 25.1992 34.0996 42.0996 59.7998 42.0996zM248 176c30.9004 0 56 -28.7002 56 -64s-25.0996 -64 -56 -64s-56 28.7002 -56 64s25.0996 64 56 64z" />
    <glyph glyph-name="sad-tear" unicode="&#xf5b4;" 
d="M248 440c137 0 248 -111 248 -248s-111 -248 -248 -248s-248 111 -248 248s111 248 248 248zM248 -8c110.3 0 200 89.7002 200 200s-89.7002 200 -200 200s-200 -89.7002 -200 -200s89.7002 -200 200 -200zM256 144c38.0996 0 74 -16.7998 98.5 -46.0996
c8.5 -10.2002 7.09961 -25.3008 -3.09961 -33.8008c-10.6006 -8.7998 -25.7002 -6.69922 -33.8008 3.10059c-15.2998 18.2998 -37.7998 28.7998 -61.5996 28.7998c-13.2002 0 -24 10.7998 -24 24s10.7998 24 24 24zM168 208c-17.7002 0 -32 14.2998 -32 32s14.2998 32 32 32
s32 -14.2998 32 -32s-14.2998 -32 -32 -32zM328 272c17.7002 0 32 -14.2998 32 -32s-14.2998 -32 -32 -32s-32 14.2998 -32 32s14.2998 32 32 32zM162.4 173.2c2.7998 3.7002 8.39941 3.7002 11.1992 0c11.4004 -15.2998 36.4004 -50.6006 36.4004 -68.1006
c0 -22.6992 -18.7998 -41.0996 -42 -41.0996s-42 18.4004 -42 41.0996c0 17.5 25 52.8008 36.4004 68.1006z" />
    <glyph glyph-name="smile-beam" unicode="&#xf5b8;" 
d="M248 440c137 0 248 -111 248 -248s-111 -248 -248 -248s-248 111 -248 248s111 248 248 248zM248 -8c110.3 0 200 89.7002 200 200s-89.7002 200 -200 200s-200 -89.7002 -200 -200s89.7002 -200 200 -200zM332 135.4c8.5 10.1992 23.5996 11.5 33.7998 3.09961
c10.2002 -8.5 11.6006 -23.5996 3.10059 -33.7998c-30 -36 -74.1006 -56.6006 -120.9 -56.6006s-90.9004 20.6006 -120.9 56.6006c-8.39941 10.2002 -7.09961 25.2998 3.10059 33.7998c10.2002 8.40039 25.2998 7.09961 33.7998 -3.09961
c20.7998 -25.1006 51.5 -39.4004 84 -39.4004s63.2002 14.4004 84 39.4004zM136.5 237l-9.5 -17c-1.90039 -3.2002 -5.90039 -4.7998 -9.2998 -3.7002c-3.60059 1.10059 -6 4.60059 -5.7002 8.2998c3.2998 42.1006 32.2002 71.4004 56 71.4004s52.7002 -29.2998 56 -71.4004
c0.299805 -3.7998 -2.09961 -7.19922 -5.7002 -8.2998c-3.09961 -1 -7.2002 0 -9.2998 3.7002l-9.5 17c-7.7002 13.7002 -19.2002 21.5996 -31.5 21.5996s-23.7998 -7.89941 -31.5 -21.5996zM328 296c23.7998 0 52.7002 -29.2998 56 -71.4004
c0.299805 -3.7998 -2.09961 -7.19922 -5.7002 -8.2998c-3.09961 -1 -7.2002 0 -9.2998 3.7002l-9.5 17c-7.7002 13.7002 -19.2002 21.5996 -31.5 21.5996s-23.7998 -7.89941 -31.5 -21.5996l-9.5 -17c-1.90039 -3.2002 -5.7998 -4.7998 -9.2998 -3.7002
c-3.60059 1.10059 -6 4.60059 -5.7002 8.2998c3.2998 42.1006 32.2002 71.4004 56 71.4004z" />
    <glyph glyph-name="star-half-alt" unicode="&#xf5c0;" horiz-adv-x="536" 
d="M390.6 8.38965l47.4102 8.12012l7.91016 -48.6895c0 -7.4707 -2.57031 -14.4502 -7.41016 -20.2002c-6.05957 -7.20996 -15.3301 -11.5898 -24.7402 -11.5898c-5.14941 0 -10.1299 1.25 -14.8291 3.7002l-38.6709 20.2793l22.3906 42.5zM278.98 56.4004
l0.229492 0.399414l56.7705 -29.7803l-22.3906 -42.5l-45.5801 23.9102l-130.95 -68.6797c-4.60938 -2.4502 -9.65918 -3.75 -14.8594 -3.75c-9.35059 0 -18.5703 4.32031 -24.6904 11.5898c-6.08008 7.19043 -8.5498 16.3799 -6.93945 25.8301l25.0498 145.5l-105.9 103
c-8.83008 8.58008 -11.9297 21.1699 -8.08984 32.8604c3.69043 11.54 13.5898 19.9297 25.7998 21.7295l146.4 21.2998l65.4102 132.381c5.49023 11.1396 16.2197 17.8096 28.6797 17.8096c12.3203 0 23.3701 -6.83008 28.8301 -17.8096l24.4102 -49.4102l-43.1504 -21.2207
l-10.0195 20.29l-62.2002 -125.88l-139.28 -20.2793l100.8 -98.0205l-23.8291 -138.31l113.319 59.4395c7.25977 3.81055 15.4102 3.14062 22.1807 -0.399414zM330.21 253.97l-33.9795 68.7207l43.1494 21.2197l22.7705 -46.0898l50.96 -7.41016l-6.9502 -47.5z
M534.43 254.59l1.58008 -9.92969c0 -8.52051 -3.41016 -16.5703 -9.62988 -22.6602l-31.3301 -30.4805l-33.5693 34.3809l-3.21094 9.41992l6.9502 47.5l43.3203 -6.31055c12.2197 -1.7998 22.1299 -10.1895 25.8896 -21.9199zM368.68 135.67l54.9902 53.4805
l33.5703 -34.3809l-36.8604 -35.8594l8.71973 -50.6406l-47.4092 -8.11914z" />
    <glyph glyph-name="surprise" unicode="&#xf5c2;" 
d="M248 440c137 0 248 -111 248 -248s-111 -248 -248 -248s-248 111 -248 248s111 248 248 248zM248 -8c110.3 0 200 89.7002 200 200s-89.7002 200 -200 200s-200 -89.7002 -200 -200s89.7002 -200 200 -200zM248 168c35.2998 0 64 -28.7002 64 -64s-28.7002 -64 -64 -64
s-64 28.7002 -64 64s28.7002 64 64 64zM200 240c0 -17.7002 -14.2998 -32 -32 -32s-32 14.2998 -32 32s14.2998 32 32 32s32 -14.2998 32 -32zM328 272c17.7002 0 32 -14.2998 32 -32s-14.2998 -32 -32 -32s-32 14.2998 -32 32s14.2998 32 32 32z" />
    <glyph glyph-name="swatchbook" unicode="&#xf5c3;" horiz-adv-x="512" 
d="M112 24c-13.25 0 -24 10.75 -24 24c0 13.2598 10.75 24 24 24s24 -10.7402 24 -24c0 -13.25 -10.75 -24 -24 -24zM480 160c17.6699 0 32 -14.3301 32 -32v-160c0 -17.6699 -14.3301 -32 -32 -32h-368c-61.8604 0 -112 50.1396 -112 112v368c0 17.6699 14.3301 32 32 32
h160c17.6699 0 32 -14.3301 32 -32v-97.6104l69.0098 69.0205c6.25 6.25 14.4404 9.37012 22.6299 9.37012c8.19043 0 16.3799 -3.12012 22.6299 -9.37012l113.141 -113.141c12.5 -12.4893 12.5 -32.75 0 -45.25l-69.0205 -69.0195h97.6104zM176 48v96.0098h-128v-96
c0 -35.29 28.71 -64 64 -64h0.0195312c5.58008 0 10.9004 0.94043 16.0605 2.29004c4.90039 1.25977 9.5498 3.23047 14.0195 5.57031c0.880859 0.469727 1.78027 0.919922 2.64062 1.42969c4.29004 2.52051 8.33984 5.48047 11.9902 9.0498
c11.8594 11.6201 19.2695 27.7705 19.2695 45.6504zM176 192v80h-128v-80h128zM176 320v80h-128v-80h128zM224 250.51v-181.02l182.16 182.16l-90.5098 90.5098zM464 -16v128h-129.61l-128 -128h257.61z" />
    <glyph glyph-name="tired" unicode="&#xf5c8;" 
d="M248 440c137 0 248 -111 248 -248s-111 -248 -248 -248s-248 111 -248 248s111 248 248 248zM248 -8c110.3 0 200 89.7002 200 200s-89.7002 200 -200 200s-200 -89.7002 -200 -200s89.7002 -200 200 -200zM377.1 295.8c3.80078 -4.39941 3.90039 -11 0.100586 -15.5
l-33.6006 -40.2998l33.6006 -40.2998c3.7998 -4.5 3.7002 -11 -0.100586 -15.5c-3.5 -4.10059 -9.89941 -5.7002 -15.2998 -2.5l-80 48c-3.59961 2.2002 -5.7998 6.09961 -5.7998 10.2998s2.2002 8.09961 5.7998 10.2998l80 48c5 2.90039 11.5 1.90039 15.2998 -2.5z
M220 240c0 -4.2002 -2.2002 -8.09961 -5.7998 -10.2998l-80 -48c-5.40039 -3.2002 -11.7998 -1.60059 -15.2998 2.5c-3.80078 4.5 -3.90039 11 -0.100586 15.5l33.6006 40.2998l-33.6006 40.2998c-3.7998 4.5 -3.7002 11 0.100586 15.5
c3.7998 4.40039 10.2998 5.5 15.2998 2.5l80 -48c3.59961 -2.2002 5.7998 -6.09961 5.7998 -10.2998zM248 176c45.4004 0 100.9 -38.2998 107.8 -93.2998c1.5 -11.9004 -7 -21.6006 -15.5 -17.9004c-22.7002 9.7002 -56.2998 15.2002 -92.2998 15.2002
s-69.5996 -5.5 -92.2998 -15.2002c-8.60059 -3.7002 -17 6.10059 -15.5 17.9004c6.89941 55 62.3994 93.2998 107.8 93.2998z" />
    <glyph glyph-name="wine-glass-alt" unicode="&#xf5ce;" horiz-adv-x="288" 
d="M216 -16c22.0898 0 40 -17.9102 40 -40c0 -4.41992 -3.58008 -8 -8 -8h-208c-4.41992 0 -8 3.58008 -8 8c0 22.0898 17.9102 40 40 40h48v115.46c-72.5996 12.5098 -126.31 78.75 -119.4 155.88l15.96 178.11c0.730469 8.24023 7.55078 14.5498 15.7002 14.5498h223.48
c8.16016 0 14.9697 -6.30957 15.71 -14.5498l15.9502 -178.11c6.90918 -77.1299 -46.8008 -143.359 -119.4 -155.88v-115.46h48zM226.25 400h-164.5l-7.16992 -80h178.84zM48.4102 251.06c-4.7002 -52.4395 31.4199 -98.2295 82.5703 -105.329h26.0293
c51.1602 7.09961 87.2803 52.8799 82.5801 105.329l-1.87988 20.9404h-187.43z" />
    <glyph glyph-name="car-alt" unicode="&#xf5de;" horiz-adv-x="480" 
d="M438.73 238.74c24.8994 -17.3398 41.2695 -46.0898 41.2695 -78.7402v-136c0 -13.25 -10.75 -24 -24 -24h-16c-13.25 0 -24 10.75 -24 24v24h-352v-24c0 -13.25 -10.75 -24 -24 -24h-16c-13.25 0 -24 10.75 -24 24v136.01c0 32.6406 16.3701 61.3906 41.2598 78.7305
l38.3105 95.1396c12.1895 30.2803 41.5693 50.1201 74.21 50.1201h172.439c32.6504 0 62.0205 -19.8398 74.21 -50.1201zM124.1 315.95l-24.1299 -59.9404h280.061l-24.1299 59.9404c-4.90039 12.1797 -16.5508 20.0498 -29.6807 20.0498h-172.439
c-13.1299 0 -24.7803 -7.87012 -29.6807 -20.0498zM432 112v48c0 26.4697 -21.5303 48 -48 48h-288c-26.4697 0 -48 -21.5303 -48 -48v-48c0 -8.82031 7.17969 -16 16 -16h352c8.82031 0 16 7.17969 16 16zM112 184.01c19.2002 0 48 -28.7197 48 -47.8594
c0 -19.1504 -28.7998 -15.96 -48 -15.96s-32 12.7598 -32 31.9092c0 19.1504 12.7998 31.9102 32 31.9102zM368 184.01c19.2002 0 32 -12.7695 32 -31.9102c0 -19.1494 -12.7998 -31.9092 -32 -31.9092s-48 -3.19043 -48 15.96c0 19.1396 28.7998 47.8594 48 47.8594z" />
    <glyph glyph-name="car-wash" unicode="&#xf5e6;" horiz-adv-x="480" 
d="M80 320c-23.5596 0 -42.6699 19.1104 -42.6699 42.6699c0 23.5605 42.6699 85.3301 42.6699 85.3301s42.6699 -61.7598 42.6699 -85.3301s-19.1104 -42.6699 -42.6699 -42.6699zM240 320c-23.5596 0 -42.6699 19.1104 -42.6699 42.6699
c0 23.5605 42.6699 85.3301 42.6699 85.3301s42.6699 -61.7598 42.6699 -85.3301s-19.1104 -42.6699 -42.6699 -42.6699zM400 320c-23.5596 0 -42.6699 19.1104 -42.6699 42.6699c0 23.5605 42.6699 85.3301 42.6699 85.3301s42.6699 -61.7598 42.6699 -85.3301
s-19.1104 -42.6699 -42.6699 -42.6699zM426.21 181.83c31.75 -15.6602 53.79 -48.0303 53.79 -85.8301v-136c0 -13.25 -10.75 -24 -24 -24h-16c-13.25 0 -24 10.75 -24 24v24h-352v-24c0 -13.25 -10.75 -24 -24 -24h-16c-13.25 0 -24 10.75 -24 24v136
c0 37.7998 22.04 70.1699 53.7803 85.8398l25.79 64.04c12.1895 30.2803 41.5596 50.1201 74.21 50.1201h172.439c32.6504 0 62.0205 -19.8398 74.2002 -50.1299zM124.1 227.95l-14.4697 -35.9404h260.76l-14.4697 35.9404
c-4.91016 12.1797 -16.5596 20.0498 -29.6895 20.0498h-172.44c-13.1299 0 -24.79 -7.87012 -29.6904 -20.0498zM432 48v48c0 26.4697 -21.5303 48 -48 48h-288c-26.4697 0 -48 -21.5303 -48 -48v-48c0 -8.82031 7.17969 -16 16 -16h352c8.82031 0 16 7.17969 16 16z
M368 120.01c19.2002 0 32 -12.7598 32 -31.9102c0 -19.1494 -12.7998 -31.9092 -32 -31.9092s-48 -3.18066 -48 15.96c0 19.1396 28.7998 47.8594 48 47.8594zM112 120.01c19.2002 0 48 -28.71 48 -47.8594c0 -19.1504 -28.7998 -15.96 -48 -15.96s-32 12.7598 -32 31.9092
c0 19.1504 12.7998 31.9102 32 31.9102z" />
    <glyph glyph-name="do-not-enter" unicode="&#xf5ec;" 
d="M394.67 256c7.36035 0 13.3301 -7.16016 13.3203 -16v-96c0 -8.83984 -5.9707 -16 -13.3301 -16h-293.33c-7.36035 0 -13.3301 7.16016 -13.3301 16v96c0 8.83984 5.96973 16 13.3301 16h293.34zM360 176v32h-224v-32h224zM248 440c136.97 0 248 -111.03 248 -248
s-111.03 -248 -248 -248s-248 111.03 -248 248s111.03 248 248 248zM248 -8c110.28 0 200 89.7197 200 200s-89.7197 200 -200 200s-200 -89.7197 -200 -200s89.7197 -200 200 -200z" />
    <glyph glyph-name="location-circle" unicode="&#xf602;" 
d="M304.51 307.8c17.54 7.25 36.7998 3.25 50.0303 -9.89941c13.1602 -13.1201 17.1602 -32.3008 10.2197 -48.8701l-0.379883 -0.830078l-84 -181.13c-7.79004 -16.6299 -23.4199 -26.4502 -40.7998 -26.4502c-3.37012 0 -6.81055 0.379883 -10.25 1.13965
c-20.7803 4.58984 -35.3203 22.5498 -35.3203 43.6904v52.7295h-52.9902c-21.2197 0 -39.2598 14.46 -43.8896 35.1504c-4.68945 21.1699 5.46973 41.5801 25.3203 50.8096zM242.02 98.3896l75.4707 162.73l-163.53 -75.1504h88.0596v-87.5801zM248 440
c136.97 0 248 -111.03 248 -248s-111.03 -248 -248 -248s-248 111.03 -248 248s111.03 248 248 248zM248 -8c110.28 0 200 89.7197 200 200s-89.7197 200 -200 200s-200 -89.7197 -200 -200s89.7197 -200 200 -200z" />
    <glyph glyph-name="parking-circle" unicode="&#xf615;" 
d="M256.09 312.09c48.5303 0 88 -39.4697 88 -88s-39.4697 -88 -88 -88h-48v-56c0 -8.83984 -7.16016 -16 -16 -16h-16c-8.83984 0 -16 7.16016 -16 16v216c0 8.83984 7.16016 16 16 16h80zM256.09 184.09c22.0605 0 40 17.9404 40 40c0 22.0605 -17.9395 40 -40 40h-48v-80
h48zM248 440c136.97 0 248 -111.03 248 -248s-111.03 -248 -248 -248s-248 111.03 -248 248s111.03 248 248 248zM248 -8c110.28 0 200 89.7197 200 200s-89.7197 200 -200 200s-200 -89.7197 -200 -200s89.7197 -200 200 -200z" />
    <glyph glyph-name="parking-circle-slash" unicode="&#xf616;" 
d="M160.09 80.0898v89.2598l48 -37.5293v-51.7305c0 -8.83984 -7.16016 -16 -16 -16h-16c-8.83984 0 -16 7.16016 -16 16zM248 440c136.97 0 248 -111.03 248 -248s-111.03 -248 -248 -248s-248 111.03 -248 248s111.03 248 248 248zM248 -8
c55.25 0 105.33 22.5303 141.56 58.8604l-312.54 244.35c-18.2891 -30.1699 -29.0195 -65.4199 -29.0195 -103.21c0 -110.28 89.7197 -200 200 -200zM208.09 253.67l75.0498 -58.6797c7.87012 7.30957 12.9502 17.54 12.9502 29.0996c0 22.0605 -17.9395 40 -40 40h-48
v-10.4199zM418.99 88.79c18.2793 30.1699 29.0098 65.4199 29.0098 103.21c0 110.28 -89.7197 200 -200 200c-55.25 0 -105.33 -22.5303 -141.56 -58.8701l53.6494 -41.9395v4.89941c0 8.83984 7.16016 16 16 16h80c48.5303 0 88 -39.4697 88 -88
c0 -22.7002 -8.87012 -43.1494 -23.0596 -58.71z" />
    <glyph glyph-name="steering-wheel" unicode="&#xf622;" 
d="M248 440c136.97 0 248 -111.03 248 -248s-111.03 -248 -248 -248s-248 111.03 -248 248s111.03 248 248 248zM248 392c-102.14 0 -186.5 -77.0195 -198.42 -176h84.6504c12.8496 32.71 44.5498 56 81.7695 56h64c37.2197 0 68.9199 -23.29 81.7695 -56h84.6504
c-11.9102 98.9805 -96.2803 176 -198.42 176zM248 121.95l71 70.9795c-4.05957 17.7607 -20 31.0605 -39 31.0605h-64c-19 0 -34.9404 -13.29 -39 -31.0605zM49.5801 168c10.9697 -91.0996 83.3203 -163.45 174.42 -174.42v84.4902l-89.9404 89.9297h-84.4795zM272 -6.41992
c91.0996 10.9697 163.46 83.3203 174.42 174.42h-84.4795l-89.9404 -89.9297v-84.4902z" />
    <glyph glyph-name="bullseye-arrow" unicode="&#xf648;" 
d="M305.05 349.26c-0.678711 2.04102 -1.05371 4.22949 -1.05371 6.49707c0 5.67578 2.30273 10.8184 6.02344 14.543l63.6602 63.6602c10.8105 10.7998 29.21 6.45996 34.04 -8.04004l18.5498 -55.6504l55.6602 -18.5498c14.5 -4.83984 18.8398 -23.2393 8.04004 -34.04
l-63.6699 -63.6699c-5.50977 -5.5 -13.6494 -7.41992 -21.04 -4.95996l-49.7002 16.5703l-90.5898 -90.5898c-9.37988 -9.37988 -24.5693 -9.37012 -33.9395 0c-9.37988 9.37988 -9.37988 24.5596 0 33.9395l90.5898 90.5898zM248 296
c-57.3496 0 -104.01 -46.6396 -104.01 -103.99c0 -57.3496 46.6494 -104 104 -104c57.3496 0 104 46.6504 104 104c0 7.66016 -0.950195 15.0801 -2.53027 22.2705l14.7402 14.7393l30.9395 -10.3096c0.709961 -0.240234 1.48047 -0.150391 2.2002 -0.360352
c1.5 -8.58984 2.65039 -17.3096 2.65039 -26.3398c0 -84 -67.9805 -152 -152 -152c-84 0 -152 67.9805 -152 152c0 84 67.9795 152 152 152c9.00977 0 17.7197 -1.14941 26.29 -2.64941c0.209961 -0.740234 0.169922 -1.48047 0.410156 -2.20996l10.3193 -30.9502
l-14.7402 -14.7402c-7.18945 1.58008 -14.6094 2.54004 -22.2695 2.54004zM484.43 266.9c7.48047 -23.6406 11.5703 -48.79 11.5703 -74.9004c0 -136.97 -111.03 -248 -248 -248s-248 111.03 -248 248s111.03 248 248 248
c0.0146484 0 0.0390625 -0.0546875 0.0537109 -0.0546875c26.0791 0 51.2246 -4.03125 74.8467 -11.5049l-35.5 -35.5c-1.32031 -1.32031 -2.14062 -2.94043 -3.30078 -4.36035c-11.7295 2.15039 -23.7598 3.42969 -36.0996 3.42969c-110.28 0 -200 -89.7197 -200 -200
c0 -110.279 89.7197 -200 200 -200s200 89.7207 200 200c0 12.25 -1.26953 24.1904 -3.38965 35.8398c1.44922 1.16992 2.97949 2.20996 4.31934 3.55078z" />
    <glyph glyph-name="bullseye-pointer" unicode="&#xf649;" 
d="M242.16 207.33c12.9102 3.66016 24.8398 -8.25977 21.1602 -21.1699l-60.8701 -214.18c-4.31055 -15.1709 -25.0898 -16.9502 -31.9199 -2.73047l-32.8906 68.4697l-89.1699 -89.1699c-6.05957 -6.05957 -15.8896 -6.05957 -21.96 0l-21.96 21.96
c-6.06934 6.06055 -6.06934 15.9004 0 21.96l89.1699 89.1699l-68.4697 32.8906c-14.2197 6.81934 -12.4404 27.6094 2.73047 31.9199zM269.52 90.2998c47.04 9.9502 82.4805 51.7402 82.4805 101.7c0 57.3496 -46.6504 104 -104 104
c-49.96 0 -91.75 -35.4404 -101.7 -82.4902l-49.5498 -14.0801c3.9502 80.4707 69.7803 144.57 151.25 144.57c84 0 152 -67.9805 152 -152c0 -81.46 -64.0801 -147.3 -144.56 -151.25zM248 440c136.97 0 248 -111.03 248 -248s-111.03 -248 -248 -248
c-7.34961 0 -14.5801 0.469727 -21.7695 1.09961c1.98926 3.48047 4 6.95996 5.13965 10.9805l10.2998 36.2402c2.12012 -0.0703125 4.19043 -0.320312 6.33008 -0.320312c110.28 0 200 89.7197 200 200s-89.7197 200 -200 200s-200 -89.7197 -200 -200
c0 -2.13965 0.25 -4.20996 0.320312 -6.33008l-36.2402 -10.2998c-3.99023 -1.12988 -7.53027 -3.03027 -10.9902 -5c-0.620117 7.13965 -1.08984 14.3301 -1.08984 21.6299c0 136.97 111.03 248 248 248z" />
    <glyph glyph-name="peace" unicode="&#xf67c;" 
d="M248 440c136.97 0 248 -111.03 248 -248s-111.03 -248 -248 -248s-248 111.03 -248 248s111.03 248 248 248zM224 -6.41992v148.49l-115.91 -92.7402c30.7002 -30.1201 71.04 -50.3496 115.91 -55.75zM272 142.07v-148.48c44.8701 5.40039 85.2002 25.6299 115.91 55.75z
M48 192c0 -38.5898 11.1699 -74.54 30.1797 -105.12l145.82 116.66v186.88c-98.9805 -11.9102 -176 -96.2803 -176 -198.42zM417.82 86.8799c19.0098 30.5801 30.1797 66.5303 30.1797 105.12c0 102.14 -77.0195 186.51 -176 198.42v-186.88z" />
    <glyph glyph-name="star-of-david" unicode="&#xf69a;" horiz-adv-x="464" 
d="M405.68 192l53.2207 -89.3896c14.4092 -24.21 -3.41016 -54.6104 -32.0107 -54.6104h-106.93l-55.9502 -93.9805c-7.14941 -12.0098 -19.5801 -18.0195 -32.0098 -18.0195s-24.8604 6.00977 -32.0098 18.0195l-55.9502 93.9805h-106.93
c-28.6006 0 -46.4199 30.4004 -32 54.6104l53.21 89.3896l-53.2207 89.3896c-14.4092 24.21 3.41016 54.6104 32.0107 54.6104h106.93l55.9502 93.9805c7.14941 12.0098 19.5801 18.0195 32.0098 18.0195s24.8604 -6.00977 32.0098 -18.0195l55.9502 -93.9805h106.92
c28.6006 0 46.4199 -30.4004 32.0098 -54.6104zM406.97 288h-58.4395l29.2197 -49.0801zM349.82 192l-57.1504 96h-121.34l-57.1504 -96l57.1504 -96h121.34zM232 389.92l-32.0996 -53.9199h64.1992zM57.0303 288l29.2197 -49.0801l29.2197 49.0801h-58.4395zM57.0303 96
h58.4395l-29.2197 49.0801zM232 -5.91992l32.0996 53.9199h-64.1992zM348.53 96h58.4395l-29.2197 49.0801z" />
    <glyph glyph-name="wifi-1" unicode="&#xf6aa;" horiz-adv-x="640" 
d="M320 80c-17.6504 0 -32 -14.3604 -32 -32s14.3604 -32 32 -32s32 14.3604 32 32s-14.3604 32 -32 32zM320 128c44.1797 0 80 -35.8203 80 -80s-35.8203 -80 -80 -80s-80 35.8203 -80 80s35.8203 80 80 80z" />
    <glyph glyph-name="wifi-2" unicode="&#xf6ab;" horiz-adv-x="640" 
d="M320 80c-17.6504 0 -32 -14.3604 -32 -32s14.3604 -32 32 -32s32 14.3604 32 32s-14.3604 32 -32 32zM320 128c44.1797 0 80 -35.8203 80 -80s-35.8203 -80 -80 -80s-80 35.8203 -80 80s35.8203 80 80 80zM524.69 159.83l-16.4707 -17.3701
c-4.45996 -4.7002 -11.8096 -4.9502 -16.6201 -0.599609c-97.54 88.21 -245.779 88.1299 -343.22 0c-4.80957 -4.35059 -12.1602 -4.11035 -16.6201 0.599609l-16.4697 17.3701c-4.61035 4.87012 -4.37012 12.6396 0.589844 17.1504c115.811 105.38 292.48 105.319 408.22 0
c4.9707 -4.51074 5.20996 -12.2803 0.59082 -17.1504z" />
    <glyph glyph-name="yin-yang" unicode="&#xf6ad;" 
d="M263.9 116c19.8799 0 35.9893 -16.1201 35.9893 -36s-16.1094 -36 -35.9893 -36c-19.8809 0 -35.9902 16.1201 -35.9902 36s16.1094 36 35.9902 36zM231.91 268c-19.8701 0 -35.9805 16.1201 -35.9902 36c0 19.8799 16.1104 36 35.9902 36s35.9902 -16.1201 35.9902 -36
s-16.1104 -36 -35.9902 -36zM247.91 440c136.689 0 248.09 -111.25 248.09 -248s-111.21 -248 -247.9 -248c-0.0693359 0 -0.129883 0.0195312 -0.189453 0.0195312v-0.0195312c-136.92 0 -247.91 111.03 -247.91 248s110.99 248 247.91 248zM119.05 39.3301
c-4.08984 12.9199 -6.89941 26.4102 -6.91992 40.6699c0 74.9805 60.9805 136 135.95 136c48.5195 0 87.9697 39.4697 87.9697 88s-39.6396 88 -88.1494 88c-110.24 0 -199.92 -89.7197 -199.92 -200c0 -61.1797 27.6699 -115.95 71.0693 -152.67zM248.09 -8
c110.24 0 199.93 89.7197 199.92 200c0 60.6699 -27.1396 115.11 -69.9102 151.83c3.85059 -12.6104 5.94043 -25.9902 5.94043 -39.8301c0 -74.9805 -60.9805 -136 -135.95 -136c-48.5195 0 -87.9697 -39.4697 -87.9697 -88s39.46 -88 87.9697 -88z" />
    <glyph glyph-name="globe-europe" unicode="&#xf7a2;" 
d="M178.1 324.3v-16c0 -3 -1.19922 -5.89941 -3.2998 -8l-9.39941 -9.39941c-2.10059 -2.10059 -5 -3.30078 -8 -3.30078h-16c-6.2002 0 -11.3008 5.10059 -11.3008 11.3008c0 3 1.2002 5.89941 3.30078 8l25.3994 25.3994c2.10059 2.10059 5 3.2998 8 3.2998
c6.2002 0 11.2998 -5.09961 11.2998 -11.2998zM248 440c137 0 248 -111 248 -248s-111 -248 -248 -248s-248 111 -248 248s111 248 248 248zM423.1 95.5996c5.60059 10.2002 10.3008 20.9004 14.1006 31.9004h-20.2998c-4.30078 0 -8.40039 1.7002 -11.4004 4.7998
l-31.9004 32.6006c-4.5 4.69922 -4.5 12.0996 0.100586 16.6992l12.5 12.5v8.7002c0 3 -1.2002 5.90039 -3.2998 8l-9.40039 9.40039c-2.09961 2.09961 -5 3.2998 -8 3.2998h-16c-6.2002 0 -11.2998 5.09961 -11.2998 11.2998c0 3 1.2002 5.90039 3.2998 8l9.40039 9.40039
c2.09961 2.09961 5 3.2998 8 3.2998h32c6.19922 0 11.2998 5.09961 11.2998 11.2998v9.40039c0 6.2002 -5.10059 11.2998 -11.2998 11.2998h-36.7002c-8.7998 0 -16 -7.2002 -16 -16v-4.5c0 -6.90039 -4.40039 -13 -10.9004 -15.2002l-31.5996 -10.5
c-3.2998 -1.09961 -5.5 -4.2002 -5.5 -7.59961v-2.2002c0 -4.40039 -3.60059 -8 -8 -8h-16c-4.40039 0 -8 3.59961 -8 8s-3.60059 8 -8 8h-3.10059c-3.09961 0 -5.7998 -1.7002 -7.19922 -4.40039l-9.40039 -18.6992c-2.7002 -5.40039 -8.2002 -8.80078 -14.2998 -8.80078
h-22.1006c-8.7998 0 -16 7.2002 -16 16v25.4004c0 4.2002 1.7002 8.2998 4.7002 11.2998l20.1006 20.1006c4.59961 4.69922 7.19922 10.8994 7.19922 17.5c0 3.5 2.2002 6.5 5.5 7.59961l40 13.2998c1.7002 0.5 3.2002 1.5 4.40039 2.7002l26.7998 26.7998
c2.10059 2.10059 3.2998 5 3.2998 8c0 6.2998 -5.09961 11.2998 -11.2998 11.2998h-20.7002l-16 -16v-8c0 -4.39941 -3.59961 -8 -8 -8h-16c-4.39941 0 -8 3.60059 -8 8v20c0 2.5 1.2002 4.90039 3.2002 6.40039l29.1006 21.7002
c-107.601 -3.10059 -194.301 -91.4004 -194.301 -199.7c0 -110.3 89.7002 -200 200 -200c3.40039 0 6.7002 0.299805 10.1006 0.5v7.09961c0 8.80078 -7.2002 16 -16 16h-20.2002c-10.7998 0 -26.7998 5.30078 -35.4004 11.8008l-22.1992 16.6992
c-11.5 8.60059 -18.2002 22.1006 -18.2002 36.4004v23.9004c0 16 8.39941 30.7998 22.0996 39l42.9004 25.6992c7.09961 4.30078 15.2002 6.5 23.3994 6.5h31.2002c10.9004 0 21.4004 -3.7998 29.6006 -10.8994l43.1992 -37.1006h18.3008
c8.5 0 16.5996 -3.39941 22.5996 -9.39941l17.2998 -17.2998c3.40039 -3.40039 8.10059 -5.30078 12.9004 -5.30078h13.3994z" />
    <glyph glyph-name="grip-lines-vertical" unicode="&#xf7a5;" horiz-adv-x="256" 
d="M96 -16c0 -8.7998 -7.2002 -16 -16 -16h-16c-8.7998 0 -16 7.2002 -16 16v416c0 8.7998 7.2002 16 16 16h16c8.7998 0 16 -7.2002 16 -16v-416zM208 -16c0 -8.7998 -7.2002 -16 -16 -16h-16c-8.7998 0 -16 7.2002 -16 16v416c0 8.7998 7.2002 16 16 16h16
c8.7998 0 16 -7.2002 16 -16v-416z" />
    <glyph glyph-name="radiation" unicode="&#xf7b9;" 
d="M290.7 124.4l71.5 -113.4c10.2002 -16.2002 4.09961 -38.2002 -13.5 -45.9004c-30.7998 -13.5 -64.7998 -21.0996 -100.7 -21.0996s-69.9004 7.59961 -100.7 21.2002c-17.7002 7.7002 -23.7002 29.7002 -13.5 45.8994l71.5 113.301
c12.4004 -7.80078 27 -12.4004 42.7002 -12.4004s30.2998 4.7002 42.7002 12.4004zM248 -8c21.5 0 42.5 3.40039 62.9004 10l-40.4004 64c-7.40039 -1.2998 -14.9004 -2 -22.4004 -2c-7.59961 0 -15 0.700195 -22.3994 2l-40.4004 -64
c20.2002 -6.59961 41.2002 -10 62.7002 -10zM32.5996 192c-19.5996 0 -35.0996 17.0996 -32.2998 36.2998c9 60.7998 40.5 114.5 85.7002 152.5c5.90039 5 13 7.2998 20.0996 7.2998c10.8008 0 21.6006 -5.5 27.8008 -15.2998l71.3994 -113.2
c-22.7998 -14.0996 -38.0996 -39 -38.0996 -67.5996h-134.601zM103.2 331c-25 -25.4004 -42.7002 -56.7998 -51.2002 -91h76.2002c4 9.59961 9.09961 18.7002 15.2998 27.0996zM248 144c-26.5 0 -48 21.5 -48 48s21.5 48 48 48s48 -21.5 48 -48s-21.5 -48 -48 -48z
M328.8 192c0 28.5996 -15.2998 53.5 -38.0996 67.5996l71.3994 113.2c6.2002 9.90039 17 15.2998 27.8008 15.2998c7.09961 0 14.1992 -2.39941 20.0996 -7.2998c45.2002 -38 76.7002 -91.5996 85.7002 -152.5c2.7998 -19.2002 -12.7002 -36.2998 -32.2998 -36.2998
h-134.601zM392.8 331l-40.2998 -63.9004c6.2002 -8.39941 11.4004 -17.5 15.2998 -27.0996h76.2002c-8.59961 34.2002 -26.2002 65.5996 -51.2002 91z" />
    <glyph glyph-name="radiation-alt" unicode="&#xf7ba;" 
d="M314.1 192c0 23.5996 -12.5996 44.2002 -31.1992 55.9004l43.0996 68.8994c5.2998 8.60059 16.9004 10.2002 24.7998 3.90039c33.7002 -26.9004 56.7002 -66.2998 61.5 -111.3c1 -9.40039 -7 -17.4004 -16.5 -17.4004h-81.7002zM213.1 136.1
c10.1006 -6.2998 21.9004 -10.1992 34.7002 -10.1992s24.7002 3.7998 34.9004 10.1992l43.2002 -69.0996c5.09961 -8 2.59961 -19 -5.90039 -23.2002c-21.7998 -10.7002 -46.2002 -17 -72.0996 -17c-25.9004 0 -50.3008 6.2002 -72.1006 17
c-8.39941 4.2002 -10.8994 15.2002 -5.89941 23.2002zM100.3 192c-9.5 0 -17.5 8 -16.5 17.4004c4.7998 45 27.9004 84.5 61.5 111.3c7.90039 6.2998 19.5 4.7002 24.7998 -3.90039l43.1006 -68.8994c-18.7002 -11.7002 -31.2002 -32.3008 -31.2002 -55.9004h-81.7002z
M248 159c-18.2002 0 -33 14.7998 -33 33s14.7998 33 33 33s33 -14.7998 33 -33s-14.7998 -33 -33 -33zM248 -56c-137 0 -248 111 -248 248s111 248 248 248s248 -111 248 -248s-111 -248 -248 -248zM248 392c-110.3 0 -200 -89.7002 -200 -200s89.7002 -200 200 -200
s200 89.7002 200 200s-89.7002 200 -200 200z" />
    <glyph glyph-name="flower" unicode="&#xf7ff;" horiz-adv-x="512" 
d="M461.55 192c30.6699 -26.8096 50.4502 -65.7695 50.4502 -109.71c0 -80.7393 -65.5508 -146.29 -146.29 -146.29c-43.9404 0 -82.9004 19.7803 -109.71 50.4502c-26.8096 -30.6699 -65.7695 -50.4502 -109.71 -50.4502c-80.7393 0 -146.29 65.5508 -146.29 146.29
c0 43.9404 19.7803 82.9004 50.4502 109.71c-30.6699 26.8096 -50.4502 65.7695 -50.4502 109.71c0 80.7344 65.5557 146.29 146.29 146.29c43.9404 0 82.9004 -19.7803 109.71 -50.4502c26.8096 30.6699 65.7695 50.4502 109.71 50.4502
c80.7344 0 146.29 -65.5557 146.29 -146.29c0 -43.9404 -19.7803 -82.9004 -50.4502 -109.71zM365.71 -16c54.2197 0.0605469 98.2295 44.0703 98.29 98.29c0 28.25 -12 54.3799 -34 73.5703l-41.3799 36.1396l41.3799 36.1396c21.9102 19.1904 34 45.3203 34 73.5703
c-0.0605469 54.2197 -44.0703 98.2295 -98.29 98.29c-28.25 0 -54.3799 -12 -73.5703 -34l-36.1396 -41.3799l-36.1396 41.3799c-19.1904 21.9102 -45.3203 34 -73.5703 34c-54.2197 -0.0605469 -98.2295 -44.0703 -98.29 -98.29c0 -28.25 12 -54.3799 34 -73.5703
l41.3799 -36.1396l-41.3799 -36.1396c-21.9102 -19.1904 -34 -45.3203 -34 -73.5703c0.0605469 -54.2197 44.0703 -98.2295 98.29 -98.29c28.25 0 54.3799 12 73.5703 34l36.1396 41.3799l36.1396 -41.3799c19.1904 -21.9102 45.3203 -34 73.5703 -34zM256 272
c44.1533 0 80 -35.8467 80 -80s-35.8467 -80 -80 -80s-80 35.8467 -80 80s35.8467 80 80 80z" />
    <glyph glyph-name="french-fries" unicode="&#xf803;" horiz-adv-x="512" 
d="M351.54 219.86c-2.38965 -10.8604 -13.9902 -22.0205 -31.54 -30.4004v207.271c1.95996 3.81934 4.88965 7.05957 9.12988 8.3291l34.2803 10.25c1.45117 0.433594 2.9873 0.683594 4.57812 0.683594c8.83008 0 16 -7.16895 16 -16
c0 -0.942383 -0.0820312 -1.86523 -0.238281 -2.7627l-30.1504 -172.461c-0.599609 -1.68945 -1.65918 -3.12988 -2.05957 -4.90918zM288 179.22c-10.3799 -2.11035 -20.8799 -3.21777 -31.8789 -3.21777s-21.7412 1.10742 -32.1211 3.21777v252.78
c0 8.83105 7.18457 15.9922 16.0156 15.9922c2.56641 0 4.99316 -0.605469 7.14453 -1.68262l32 -16c5.24805 -2.62598 8.83984 -8.0459 8.83984 -14.3096v-236.78zM431.45 256h-33.4697c-2.30078 0 -4.39062 -0.799805 -6.63086 -1.12012l18.75 107.26l17.3105 5.16992
c1.45117 0.433594 2.9873 0.683594 4.57812 0.683594c8.83008 0 16 -7.16895 16 -16c0 -0.942383 -0.0820312 -1.86523 -0.238281 -2.7627zM80.5498 256l-16.2998 93.2305c-0.157227 0.899414 -0.240234 1.80762 -0.240234 2.75195c0 8.83008 7.16992 16 16 16
c1.59863 0 3.14355 -0.235352 4.60059 -0.672852l19.7393 -5.89941l20 -107.16c-3.34961 0.75 -6.75 1.75 -10.3496 1.75h-33.4502zM165.17 210.21l-36.9004 197.22c-0.177734 0.956055 -0.28418 1.91992 -0.28418 2.92676c0 5.20996 2.49512 9.84082 6.35449 12.7637
l28.5098 21.6201c2.68359 2.0332 6.04004 3.2334 9.66309 3.2334c7.82129 0 14.3389 -5.62305 15.7275 -13.0439l3.75977 -20.0996v-225.37c-12.3398 5.88965 -21.5303 13.1699 -26.8301 20.75zM432 224c8.82617 -0.00488281 15.9902 -7.16211 15.9902 -15.9902
c0 -1.19434 -0.130859 -2.35938 -0.379883 -3.47949l-54.1006 -243.471c-3.18066 -14.3184 -15.9688 -25.0596 -31.2402 -25.0596h-212.539c-0.00488281 0 -0.00683594 0.0205078 -0.0107422 0.0205078c-15.2715 0 -28.0586 10.7207 -31.2393 25.0391l-54.1006 243.471
c-0.249023 1.12012 -0.379883 2.27441 -0.379883 3.46973c0 8.83105 7.16895 16 16 16h34.04c6.91992 0 13.7002 -4.24023 15.1904 -11c8.59961 -39 62.0898 -69 126.789 -69c64.7002 0 118.19 30 126.79 69c1.49023 6.73047 8.27051 11 15.1904 11h34zM349.44 -16
l33.2998 149.86c-31.8203 -23.7207 -76.54 -37.8604 -126.74 -37.8604s-94.9199 14.1396 -126.74 37.8604l33.2998 -149.86h186.881z" />
    <glyph glyph-name="hand-middle-finger" unicode="&#xf806;" horiz-adv-x="512" 
d="M479.94 135.09l0.0595703 -55c0.0595703 -79.6494 -64.3701 -144.09 -143.96 -144.09h-184.29c-38.46 0 -74.6201 14.9805 -101.82 42.1797l-26.5 26.5c-15.1094 15.1104 -23.4297 35.2002 -23.4297 56.5703v46.9697c0 30.5 16.9404 57.9199 44.2197 71.5605
l19.7705 9.88965c0 60.1699 47.2793 74.5605 59.1602 76.9404c13.3594 2.67969 26.4297 5.81934 36.8193 5.33008l0.0498047 96.29c0.130859 44.0791 35.8701 79.7793 79.9805 79.7793c44.1797 0 80 -35.8193 80 -80l-0.0400391 -96.0693
c1.04004 0.0498047 13.0098 -0.610352 43.6699 -6.31055c26.6299 -4.9502 46.8398 -25.9697 51.3604 -51.9102c60.6094 -15.1494 64.9395 -66.0996 64.9502 -78.6299zM336.04 -16c53.0303 0 96 43.0195 95.9404 96.0498l-0.0605469 55
c-0.00976562 14.6699 -10 27.4502 -24.2295 31.0098l-39.7705 9.94043v26.6904c0 7.71973 -5.55957 14.3398 -13.1396 15.75c-28.3799 5.26953 -28.7998 5.55957 -31.6904 5.55957c-10.3301 0 -19.1494 -8.40039 -19.1494 -19.21c0 -7.05957 -5.7207 -12.79 -12.79 -12.79
h-6.40039c-7.05957 0 -12.79 5.73047 -12.79 12.7998l0.0400391 163.2c0 18.71 -16.0596 33.6699 -35.1396 31.8496c-16.6406 -1.58984 -28.8604 -16.5098 -28.8604 -33.2197l-0.0302734 -161.84c0 -7.05957 -5.71973 -12.79 -12.79 -12.79h-6.41016
c-7.05957 0 -12.7891 5.71973 -12.7891 12.79c0 10.8096 -8.82031 19.21 -19.1602 19.21c-3.10059 0 -4.75 -0.570312 -24.21 -4.45996c-11.96 -2.38965 -20.6201 -12.9102 -20.6201 -25.1104l0.00976562 -82.4297c0 -8.83984 -7.16016 -16 -16 -16s-16 7.16016 -16 16v32
l-14.3096 -7.15039c-10.502 -5.25 -17.6895 -16.0889 -17.6904 -28.6191v-46.9707c0 -8.49023 3.37012 -16.6299 9.37012 -22.6299l26.5098 -26.5098c17.3682 -17.3779 41.3848 -28.1201 67.8701 -28.1201h184.29z" />
    <glyph glyph-name="ice-cream" unicode="&#xf810;" horiz-adv-x="448" 
d="M380.91 318.7c37.9453 -6.18457 67.0244 -39.1484 67.0244 -78.8301c0 -44.082 -35.7891 -79.8701 -79.8701 -79.8701h-0.0644531h-0.94043l-92.8096 -192.14c-9.53027 -19.6602 -28.7803 -31.8604 -50.25 -31.8604c-22.21 0.00292969 -41.3623 13.0156 -50.25 31.8701
l-92.8096 192.13h-0.94043c-0.0214844 0 0.0341797 0.00195312 0.0126953 0.00195312c-44.0811 0 -79.8701 35.7891 -79.8701 79.8701c0 39.6816 29.002 72.6436 66.9473 78.8281c14.3398 73.6494 79.0605 129.3 156.91 129.3s142.57 -55.6504 156.91 -129.3zM231 -11.25
l82.75 171.25h-179.5l82.6904 -171.25c3.80957 -7.87012 10.25 -7.87012 14.0596 0zM368 208c17.6611 0 32 14.3389 32 32c-0.00390625 15.8223 -11.6484 28.9541 -26.8096 31.3301l-33 5.38965l-6.39062 32.8203c-10.0195 51.4814 -55.3965 90.3926 -109.79 90.3926
s-99.7705 -38.9111 -109.79 -90.3926l-6.38965 -32.8203l-33 -5.38965c-15.1699 -2.36719 -26.8242 -15.502 -26.8301 -31.3301c0 -17.6611 14.3389 -32 32 -32h288z" />
    <glyph glyph-name="popcorn" unicode="&#xf819;" horiz-adv-x="512" 
d="M422.06 334.39c18.1104 -16.3896 34.5 -47.2197 20.9404 -84.8496l-39.0801 -285.86c-2.12598 -15.6055 -15.5205 -27.6797 -31.7061 -27.6797h-0.0742188h-232.689c-16.1953 0 -29.6016 12.0713 -31.75 27.6797l-39.3604 288v0.379883
c-7.5 22.4102 -7.99023 55.9404 20.9297 82.2803c4.78516 28.1426 24.2236 51.3516 50.2109 61.3604c18.3496 27.8799 47.6191 36.1094 67.6992 35.7803c13.2832 10.3311 30.0273 16.5195 48.1426 16.5195h0.248047c0.0332031 0 0.129883 -0.0361328 0.163086 -0.0361328
c18.3232 0 35.2217 -6.14453 48.7471 -16.4834c33.21 0.399414 56.4199 -18.9209 67.5791 -35.7705c19.6709 -7.54004 44.4307 -27.1904 50 -61.3203zM153.45 -16h36.7695l-21.3799 256h-50.3896zM273.1 -16l21.3809 256h-77.3701l21.3896 -256h34.5996zM358.1 -16
l35.0303 256h-50.3896l-21.3799 -256h36.7393zM114.42 288h282.74c-6.20996 14.1201 -17.8906 18.1396 -25.5801 18.9102c2.20801 4.34473 3.45117 9.32422 3.45117 14.5283c0 5.41113 -1.3457 10.5107 -3.72168 14.9814c-10.2598 18.9902 -29.8896 16.79 -34.1191 15.9004
c-0.217773 13.7764 -9.27734 25.4219 -21.75 29.5c-3.15039 1.07324 -6.55664 1.65137 -10.0684 1.65137c-7.25586 0 -13.9346 -2.48633 -19.2324 -6.65137c0 4.31934 -9.08008 23.2295 -30.5693 23.2295c-22.2803 0 -29.3604 -19.6797 -30.3604 -23.2295
c-5.22949 4.17285 -11.8848 6.6709 -19.0889 6.6709c-3.49805 0 -6.85938 -0.587891 -9.99121 -1.6709c-12.4619 -4.08984 -21.5088 -15.7305 -21.7295 -29.5c-4.23047 0.889648 -23.8408 3.09961 -34.1406 -15.9004c-2.4834 -4.42188 -3.90039 -9.58594 -3.90039 -15.0137
c0 -5.24414 1.32129 -10.1807 3.65039 -14.4961c-3.66992 -0.360352 -18.21 -2.16016 -25.5898 -18.9102z" />
    <glyph glyph-name="tree-palm" unicode="&#xf82b;" horiz-adv-x="640" 
d="M448.76 384c80.6201 0 147.37 -47.2402 158.98 -108.86c1.87012 -9.92969 -6.49023 -19.1396 -17.7402 -19.1396h-78l-32 48l-32 -48h-64.1201c15.7598 -68.5195 34.4004 -181.64 17.46 -286.52c-2.97461 -18.9375 -19.3799 -33.4805 -39.1475 -33.4805h-0.132812
h-90.4297c-26.5303 0 -45.0996 25.3604 -38.1895 50.54c12.1191 43.71 35.0898 140.89 32.9199 240l-124.92 -124.92c-7.9502 -7.94043 -20.3701 -7.33984 -26.0703 1c-35.3701 51.7803 -21.5703 132.38 35.4297 189.39c3.37988 3.37988 7.12988 6 10.6602 9.07031
l-33.46 66.9199l-32 -48h-46c-11.25 0 -19.6104 9.20996 -17.7598 19.1396c11.6299 61.6201 78.3896 108.86 159 108.86c74.1299 0 135.899 -40.1699 154.52 -94.5c27.9404 18.7598 63.5703 30.5 103 30.5zM355 -16c14.4805 100.11 -5.71973 210.39 -20.5303 272h-21.6797
c7.41992 -108.19 -15.9004 -217.52 -30.3203 -272h72.5303z" />
    <glyph glyph-name="send-backward" unicode="&#xf87f;" horiz-adv-x="512" 
d="M48 400v-256h80v-48h-80c-26.4922 0 -48 21.5078 -48 48v256c0 26.4922 21.5078 48 48 48h256c26.4922 0 48 -21.5078 48 -48v-80h-48v80h-256zM256 16c-8.83105 0 -16 7.16895 -16 16v160c0 8.83105 7.16895 16 16 16h160c8.83105 0 16 -7.16895 16 -16v-160
c0 -8.83105 -7.16895 -16 -16 -16h-160zM288 160v-96h96v96h-96zM464 288c26.4922 0 48 -21.5078 48 -48v-256c0 -26.4922 -21.5078 -48 -48 -48h-256c-26.4922 0 -48 21.5078 -48 48v256c0 26.4922 21.5078 48 48 48h256zM464 -16v256h-256v-256h256z" />
    <glyph glyph-name="skull-cow" unicode="&#xf8de;" horiz-adv-x="640" 
d="M256 223.91c17.6611 0 32 -14.3389 32 -32s-14.3389 -32 -32 -32s-32 14.3389 -32 32s14.3389 32 32 32zM384 223.91c17.6611 0 32 -14.3389 32 -32s-14.3389 -32 -32 -32s-32 14.3389 -32 32s14.3389 32 32 32zM603.26 443.43
c23.7402 -23.2393 36.7402 -55.5898 36.7002 -91.0898c0 -70.4502 -57.4102 -128.26 -128 -128.26l-32 -0.0800781v-80.0898c-0.0693359 -31.9951 -23.8008 -58.4971 -54.5703 -63l-34.8301 -121.72c-3.83105 -13.3809 -16.1582 -23.1904 -30.7627 -23.1904h-0.00683594
h-79.7197c-14.6084 0.0185547 -26.9316 9.85254 -30.7402 23.25l-34.7305 121.69c-30.7803 4.49316 -54.5244 30.998 -54.5996 63v80.1299h-32c-70.5703 0 -128 57.7998 -128 128.26c0 35.5195 13.0498 67.8701 36.8096 91.1104
c2.88574 2.82227 6.83105 4.55469 11.1826 4.55469c8.83105 0 16 -7.16895 16 -16c0 -1.95312 -0.350586 -3.82422 -0.992188 -5.55469c-6.50977 -17.3506 -19.6504 -67.6406 -2.90039 -91.7002c6.80078 -9.74023 18.5303 -14.7402 35.9004 -14.7402h73
c10.9951 19.0127 31.4912 31.7646 55 31.8301h191.9c23.4883 -0.0419922 43.9746 -12.7451 55 -31.71l73.0996 -0.120117c17.4004 0 29.1299 5 35.9297 14.7598c16.7207 24.1006 3.19043 75.5605 -2.87988 91.6699c-0.648438 1.73926 -1.00586 3.62988 -1.00586 5.59473
c0 8.83008 7.16895 16 16 16c4.36719 0 8.32812 -1.75391 11.2158 -4.59473zM432 143.94v143.949c0 8.83105 -7.16895 16 -16 16h-192c-8.83105 0 -16 -7.16895 -16 -16v-143.949c0.0341797 -7.93848 5.95605 -14.5039 13.6104 -15.5703l30.6094 -4.54004l8.5 -29.7598
l31.4199 -110.07h55.5908l31.5498 110.11l8.5 29.71l30.5801 4.5498c7.66895 1.0498 13.6074 7.62109 13.6396 15.5703z" />
    <glyph glyph-name="wagon-covered" unicode="&#xf8ee;" horiz-adv-x="640" 
d="M624.23 421.53c9.84277 -12.1875 15.7334 -27.79 15.7334 -44.6611c0 -9.7793 -1.98145 -19.0986 -5.56348 -27.5791l-63.3506 -161.73c3.08008 -2.8916 5 -6.99902 5 -11.5537v-0.00585938v-31.9902c0 -8.83008 -7.16895 -16 -16 -16h-17.79
c0.320312 -0.30957 0.69043 -0.5 1 -0.80957c20.3037 -20.2539 32.8545 -48.1592 32.8545 -79.0752c0 -61.7314 -50.1182 -111.85 -111.851 -111.85c-56.2559 0 -102.868 41.6221 -110.693 95.7246h-67.0801c-7.64551 -54.3906 -54.4434 -96.3965 -110.929 -96.3965
c-61.8145 0 -112 50.1855 -112 112c0 31.1143 12.7158 59.2822 33.2285 79.5869c0.320312 0.30957 0.69043 0.5 1 0.80957h-17.79c-8.83105 0 -16 7.16895 -16 16v32c0 0.00683594 -0.00488281 0.0136719 -0.00488281 0.0214844c0 4.55469 1.9248 8.66504 5.00488 11.5586
l-63.5801 162.21c-3.43848 8.34277 -5.42676 17.5264 -5.42676 27.1045c0 39.252 31.8682 71.1201 71.1201 71.1201c4.50879 0 8.91992 -0.420898 13.1963 -1.22461l148.971 -27.9404h8.21973c10.6562 8.19629 24.0391 13.1123 38.5 13.1504h80
c14.4727 -0.0322266 27.8662 -4.94922 38.5303 -13.1504h8.21973l149 27.9404c4.27441 0.803711 8.59863 1.27246 13.1055 1.27246c22.3701 0 42.3408 -10.3564 55.375 -26.5322zM160 -13.7305v45.7305h-45.7305c5.5166 -22.4785 23.252 -40.2139 45.7305 -45.7305zM160 64
v45.75c-22.4834 -5.51953 -40.2197 -23.2627 -45.7305 -45.75h45.7305zM118.87 192h97.1494v176.04c0 1.75 0.370117 3.38965 0.510742 5.11035l-141.07 26.4492c-1.39648 0.263672 -2.80664 0.385742 -4.2793 0.385742c-12.7607 0 -23.1201 -10.3594 -23.1201 -23.1201
c0 -3.18164 0.644531 -6.21484 1.80957 -8.97559zM221.27 2.73047c7.8877 7.95801 13.6689 18.0527 16.4707 29.2695h-45.7402v-45.7305c11.2217 2.79688 21.3037 8.5752 29.2695 16.4609zM192 64h45.75c-5.5127 22.4912 -23.2588 40.2373 -45.75 45.75v-45.75zM376 192v176
c0 8.83105 -7.16895 16 -16 16h-80c-8.83105 0 -16 -7.16895 -16 -16v-176h112zM448 -13.75l0.0498047 45.75h-45.75c5.51172 -22.4766 23.2324 -40.2148 45.7002 -45.75zM448 63.9902l0.0498047 45.7402c-22.4854 -5.51855 -40.2275 -23.2568 -45.75 -45.7402h45.7002z
M509.26 2.73047c7.87305 7.96191 13.6904 18.0566 16.4805 29.2695h-45.7402v-45.75c11.2207 2.80371 21.2988 8.58887 29.2598 16.4805zM480.05 64h45.7402c-5.51172 22.4893 -23.2529 40.2334 -45.7402 45.75v-45.75zM589.94 367.37
c5.05957 12.0303 -0.470703 20.79 -3.08008 24.0303c-4.13672 5.27539 -10.543 8.65039 -17.7607 8.65039c-1.54395 0 -3.05176 -0.155273 -4.50977 -0.451172l-141.14 -26.1094c0.160156 -1.83984 0.549805 -3.61035 0.549805 -5.49023v-176h97.1797z" />
  </font>
</defs>
</svg>
