<?xml version="1.0" standalone="no"?>
<!DOCTYPE svg PUBLIC "-//W3C//DTD SVG 1.1//EN" "http://www.w3.org/Graphics/SVG/1.1/DTD/svg11.dtd" >
<svg xmlns="http://www.w3.org/2000/svg" xmlns:xlink="http://www.w3.org/1999/xlink" version="1.1">
<metadata>
Created by FontForge 20200314 at Wed Jan 13 11:59:51 2021
 By Robert Madole
Copyright (c) Font Awesome
</metadata>
<!-- Font Awesome Pro 5.15.2 by @fontawesome - https://fontawesome.com License - https://fontawesome.com/license (Commercial License) --><defs>
<font id="FontAwesome5Pro-Light" horiz-adv-x="640" >
  <font-face 
    font-family="Font Awesome 5 Pro Light"
    font-weight="300"
    font-stretch="normal"
    units-per-em="512"
    panose-1="2 0 3 3 0 0 0 0 0 0"
    ascent="448"
    descent="-64"
    bbox="-7.2041 -71.1445 640.033 448.06"
    underline-thickness="25"
    underline-position="-50"
    unicode-range="U+0020-F8FF"
  />
    <missing-glyph />
    <glyph glyph-name="glass-martini" unicode="&#xf000;" horiz-adv-x="512" 
d="M502.05 390.4l-230.05 -230.04v-192.36h53.3203c14.7295 0 26.6699 -11.9404 26.6699 -26.6699c0 -2.94043 -2.37988 -5.33008 -5.33008 -5.33008h-181.33c-2.94043 0 -5.33008 2.37988 -5.33008 5.33008c0 14.7295 11.9404 26.6699 26.6699 26.6699h53.3301v192.36
l-230.05 230.04c-21.25 21.2598 -6.2002 57.5996 23.8496 57.5996h444.4c30.0498 0 45.0996 -36.3398 23.8496 -57.5996zM256.06 189.67l162.33 162.33l61.0303 61.04c0.520508 0.509766 0.830078 0.820312 0.379883 1.88965
c-0.439453 1.07031 -0.879883 1.07031 -1.59961 1.07031h-444.4c-0.719727 0 -1.16016 0 -1.59961 -1.08008c-0.44043 -1.07031 -0.129883 -1.37988 0.379883 -1.88965z" />
    <glyph glyph-name="signal" unicode="&#xf012;" 
d="M208 160c4.41992 0 8 -3.58008 8 -8v-208c0 -4.41992 -3.58008 -8 -8 -8h-32c-4.41992 0 -8 3.58008 -8 8v208c0 4.41992 3.58008 8 8 8h32zM80 64c4.41992 0 8 -3.58008 8 -8v-112c0 -4.41992 -3.58008 -8 -8 -8h-32c-4.41992 0 -8 3.58008 -8 8v112
c0 4.41992 3.58008 8 8 8h32zM336 256c4.41992 0 8 -3.58008 8 -8v-304c0 -4.41992 -3.58008 -8 -8 -8h-32c-4.41992 0 -8 3.58008 -8 8v304c0 4.41992 3.58008 8 8 8h32zM464 352c4.41992 0 8 -3.58008 8 -8v-400c0 -4.41992 -3.58008 -8 -8 -8h-32
c-4.41992 0 -8 3.58008 -8 8v400c0 4.41992 3.58008 8 8 8h32zM592 448c4.41992 0 8 -3.58008 8 -8v-496c0 -4.41992 -3.58008 -8 -8 -8h-32c-4.41992 0 -8 3.58008 -8 8v496c0 4.41992 3.58008 8 8 8h32z" />
    <glyph glyph-name="qrcode" unicode="&#xf029;" horiz-adv-x="448" 
d="M0 224v192h192v-192h-192zM32 384v-128h128v128h-128zM256 416h192v-192h-192v192zM416 256v128h-128v-128h128zM0 -32v192h192v-192h-192zM32 128v-128h128v128h-128zM64 352h64v-64h-64v64zM384 288h-64v64h64v-64zM64 96h64v-64h-64v64zM416 160h32v-128h-128v32h-32
v-96h-32v192h96v-32h64v32zM416 0h32v-32h-32v32zM352 0h32v-32h-32v32z" />
    <glyph glyph-name="image" unicode="&#xf03e;" horiz-adv-x="512" 
d="M464 384c26.5098 0 48 -21.4902 48 -48v-288c0 -26.5098 -21.4902 -48 -48 -48h-416c-26.5098 0 -48 21.4902 -48 48v288c0 26.5098 21.4902 48 48 48h416zM480 48v288c0 8.82227 -7.17773 16 -16 16h-416c-8.82227 0 -16 -7.17773 -16 -16v-288
c0 -8.82227 7.17773 -16 16 -16h416c8.82227 0 16 7.17773 16 16zM112 216c-30.9277 0 -56 25.0723 -56 56s25.0723 56 56 56s56 -25.0723 56 -56s-25.0723 -56 -56 -56zM112 296c-13.2344 0 -24 -10.7656 -24 -24s10.7656 -24 24 -24s24 10.7656 24 24s-10.7656 24 -24 24z
M319.029 272.971c9.37305 9.37207 24.5684 9.37207 33.9414 0l88 -88c4.5 -4.50098 7.0293 -10.6055 7.0293 -16.9707v-92c0 -6.62695 -5.37305 -12 -12 -12h-360c-6.62695 0 -12 5.37305 -12 12v28c0 6.62305 2.68555 12.626 7.03027 16.9697l88 88
c9.37207 9.37305 24.5674 9.37305 33.9404 0l31.0293 -31.0283zM416 96v68.6855l-80 80l-112 -112l-48 48l-80 -80v-4.68555h320z" />
    <glyph glyph-name="fire" unicode="&#xf06d;" horiz-adv-x="384" 
d="M216 423.99c0 -103.141 168 -125.7 168 -295.99c0 -105.87 -86.1299 -192 -192 -192s-192 86.1299 -192 192c0 62.7197 30.75 121.62 82.2695 157.55c15.8809 11.0801 37.7305 -0.290039 37.7305 -19.6797v-105.87c0 -22.0596 17.9404 -40 40 -40s40 17.9404 40 40
c0 49.2695 -123.45 129.75 -28.1504 277.03c12.9902 20.0693 44.1504 10.7598 44.1504 -13.04zM192 -32c88.2197 0 160 71.7803 160 160c0 144.7 -144 160 -165.41 280c-66.5898 -120 45.4102 -182.89 45.4102 -248c0 -39.7002 -32.2998 -72 -72 -72s-72 32.2998 -72 72v96
c-35.3203 -30.25 -56 -81.0596 -56 -128c0 -88.2197 71.7803 -160 160 -160z" />
    <glyph glyph-name="comment" unicode="&#xf075;" horiz-adv-x="512" 
d="M256 384c-123.5 0 -224 -79 -224 -176c0 -37.5996 15.2998 -73.7002 44.2002 -104.3l13.7002 -14.6006l-7.10059 -18.6992c-11 -29.2002 -28.7998 -54.5 -40.7998 -69.6006c44.0996 4.2998 79.5996 23.2998 102.6 39.6006l13 9.19922l15.2002 -4.7998
c26.9004 -8.5 54.9004 -12.7998 83.2002 -12.7998c123.5 0 224 79 224 176s-100.5 176 -224 176zM256 416c141.4 0 256 -93.0996 256 -208s-114.6 -208 -256 -208c-32.7998 0 -64 5.2002 -93 14.2998c-29.0996 -20.5996 -77.5996 -46.2998 -139.1 -46.2998
c-9.60059 0 -18.2002 5.7002 -22 14.5c-3.80078 8.7998 -2 19 4.59961 26c0.5 0.400391 31.5 33.7998 46.4004 73.2002c-33 35.0996 -52.9004 78.7002 -52.9004 126.3c0 114.9 114.6 208 256 208z" />
    <glyph glyph-name="folder" unicode="&#xf07b;" horiz-adv-x="512" 
d="M194.74 352h-146.74c-8.83984 0 -16 -7.16016 -16 -16v-288c0 -8.83984 7.16016 -16 16 -16h416c8.83984 0 16 7.16016 16 16v224c0 8.83984 -7.16016 16 -16 16h-192c-8.49023 0 -16.6299 3.37012 -22.6299 9.37012zM48 384h146.74
c8.49023 0 16.6299 -3.37012 22.6299 -9.37012l54.6299 -54.6299h192c26.5098 0 48 -21.4902 48 -48v-224c0 -26.5098 -21.4902 -48 -48 -48h-416c-26.5098 0 -48 21.4902 -48 48v288c0 26.5098 21.4902 48 48 48z" />
    <glyph glyph-name="camera-retro" unicode="&#xf083;" horiz-adv-x="512" 
d="M32 390v20c0 3.2998 2.7002 6 6 6h116c3.2998 0 6 -2.7002 6 -6v-20c0 -3.2998 -2.7002 -6 -6 -6h-116c-3.2998 0 -6 2.7002 -6 6zM376 160c0 -66.2002 -53.7998 -120 -120 -120s-120 53.7998 -120 120s53.7998 120 120 120s120 -53.7998 120 -120zM344 160
c0 48.5 -39.5 88 -88 88s-88 -39.5 -88 -88s39.5 -88 88 -88s88 39.5 88 88zM224 160c0 -8.7998 -7.2002 -16 -16 -16s-16 7.2002 -16 16c0 35.2998 28.7002 64 64 64c8.7998 0 16 -7.2002 16 -16s-7.2002 -16 -16 -16c-17.5996 0 -32 -14.4004 -32 -32zM512 368v-352
c0 -26.5 -21.5 -48 -48 -48h-416c-26.5 0 -48 21.5 -48 48v288c0 26.5 21.5 48 48 48h136l33.5996 44.7998c9.10059 12.1006 23.3008 19.2002 38.4004 19.2002h208c26.5 0 48 -21.5 48 -48zM224 352h240c5.59961 0 11 -1 16 -2.7002v18.7002c0 8.7998 -7.2002 16 -16 16
h-208c-5 0 -9.7998 -2.40039 -12.7998 -6.40039zM480 304c0 8.7998 -7.2002 16 -16 16h-416c-8.7998 0 -16 -7.2002 -16 -16v-288c0 -8.7998 7.2002 -16 16 -16h416c8.7998 0 16 7.2002 16 16v288z" />
    <glyph glyph-name="key" unicode="&#xf084;" horiz-adv-x="512" 
d="M336 416c-79.5293 0 -144 -64.4707 -144 -144c0 -18.9678 3.6748 -37.0762 10.3389 -53.6611l-170.339 -170.339v-80h96v64h64v64h48l42.3389 42.3389c16.585 -6.66406 34.6934 -10.3389 53.6611 -10.3389c79.5293 0 144 64.4707 144 144s-64.4707 144 -144 144zM336 448
c97.2314 0 176 -78.8164 176 -176c0 -97.2314 -78.8164 -176 -176 -176c-15.3066 0 -30.3516 1.94531 -44.9463 5.79785l-30.7686 -30.7686c-4.50098 -4.5 -10.6064 -7.0293 -16.9707 -7.0293h-19.3145v-40c0 -13.2549 -10.7451 -24 -24 -24h-40v-40
c0 -13.2549 -10.7451 -24 -24 -24h-112c-13.2549 0 -24 10.7451 -24 24v91.3145c0 6.62207 2.68555 12.625 7.0293 16.9697l158.769 158.769c-3.85254 14.5957 -5.79785 29.6406 -5.79785 44.9473c0 97.2314 78.8164 176 176 176zM384 340c-11.0283 0 -20 -8.97168 -20 -20
s8.97168 -20 20 -20s20 8.97168 20 20s-8.97168 20 -20 20zM384 368c26.5098 0 48 -21.4902 48 -48s-21.4902 -48 -48 -48s-48 21.4902 -48 48s21.4902 48 48 48z" />
    <glyph glyph-name="hdd" unicode="&#xf0a0;" horiz-adv-x="576" 
d="M566.819 220.623c5.75781 -7.91699 9.18066 -17.7021 9.18066 -28.2324v-144.391c0 -26.5098 -21.4902 -48 -48 -48h-480c-26.5098 0 -48 21.4902 -48 48v144.391c0 10.5303 3.42285 20.3154 9.18066 28.2324l104.443 143.609
c8.72852 12.002 22.8564 19.7676 38.8193 19.7676h271.113c15.9629 0 30.0908 -7.76562 38.8203 -19.7676zM139.503 345.411l-88.2988 -121.411h473.592l-88.2979 121.411c-3.00098 4.12598 -7.83789 6.58887 -12.9404 6.58887h-271.114
c-5.31836 -0.0078125 -10.0254 -2.59375 -12.9404 -6.58887zM544 176c0 8.83691 -7.16309 16 -16 16h-480c-8.83691 0 -16 -7.16309 -16 -16v-128c0 -8.82324 7.17773 -16 16 -16h480c8.82227 0 16 7.17676 16 16v128zM488 112c0 -13.2549 -10.7451 -24 -24 -24
s-24 10.7451 -24 24s10.7451 24 24 24s24 -10.7451 24 -24zM424 112c0 -13.2549 -10.7451 -24 -24 -24s-24 10.7451 -24 24s10.7451 24 24 24s24 -10.7451 24 -24z" />
    <glyph glyph-name="flag-checkered" unicode="&#xf11e;" horiz-adv-x="512" 
d="M464 351.7v-71.1006c-25.0996 -9.89941 -50 -19.2998 -76.7998 -23.6992v72.5996c27.0996 4.7998 54.2998 13.2998 76.7998 22.2002zM464 139.2c-18.2002 -11.5 -46.0996 -23.2002 -76.7998 -26.4004v72c30 4 60 14.9004 76.7998 25.5v-71.0996zM80 261.7v71.0996
c18.2002 11.5 46.0996 23.2002 76.7998 26.4004v-72.5c-29.8994 -4.2998 -60.5996 -14.7998 -76.7998 -25zM80 128.2v71.0996c24.7998 8.2002 50.7998 13.9004 76.7998 16.6006v-71.7002c-26.5 -2.90039 -53.7002 -8.2998 -76.7998 -16zM310.4 191.3v68.1006
c28.1992 -6.10059 52.3994 -6.5 76.7998 -2.5v-72.1006c-27.1006 -3.59961 -49.2998 -1.09961 -76.7998 6.5v-68.8994c-24.8008 7.39941 -49.1006 16.6992 -76.8008 21.3994v69.7002c27.2002 -5.59961 51.7002 -15.2998 76.8008 -22.2002zM477.9 410.2
c15.8994 7.39941 34.0996 -4.2002 34.0996 -21.7002v-261.6c0 -8 -3.90039 -15.4004 -10.5 -19.9004c-38.0996 -25.7998 -78.7002 -43 -130 -43c-69.9004 0 -115.2 34.7002 -171.8 34.7002c-63.6006 0 -104.3 -14.6006 -135.7 -29.1006v-121.6
c0 -6.59961 -5.40039 -12 -12 -12h-8c-6.59961 0 -12 5.40039 -12 12v406.7c-19.4004 6.89941 -33.0996 25.8994 -31.9004 48c1.30078 24.5 21.4004 44.2998 46 45.2998c29.7002 1.09961 53.5 -24.7002 49.4004 -54.4004c23.2998 9.10059 48.5 14.4004 77 14.4004
c69.9004 0 115.2 -34.7002 171.9 -34.7002c47.1992 0 96.6992 19.7998 133.5 36.9004zM48 380c11 0 20 9 20 20s-9 20 -20 20s-20 -9 -20 -20s9 -20 20 -20zM480 130.7v245.3c-33.5 -15.9004 -89.7998 -34.7002 -135.7 -34.7002c-63.5996 0 -108.2 34.7002 -171.8 34.7002
c-44 0 -85.4004 -18 -108.5 -34.7002v-236.6c33.4004 15.7998 89.7002 26 135.7 26c63.5996 0 108.2 -34.7002 171.8 -34.7002c44 0 85.4004 18 108.5 34.7002zM310.4 328.3v-68.8994c-27.2002 6 -51.5 15.6992 -76.8008 22.3994v67.9004
c24.5 -7.2002 49.1006 -16.7002 76.8008 -21.4004zM156.8 286.8c25.5 3.7002 47.1006 2.7998 76.7998 -5v-68.3994c-20.5996 4.19922 -42.5996 6.09961 -76.7998 2.5v70.8994z" />
    <glyph glyph-name="bullseye" unicode="&#xf140;" horiz-adv-x="496" 
d="M248 356c90.6396 0 164 -73.3496 164 -164c0 -90.6396 -73.3496 -164 -164 -164c-90.6396 0 -164 73.3496 -164 164c0 90.6396 73.3496 164 164 164zM248 60c72.79 0 132 59.21 132 132s-59.21 132 -132 132s-132 -59.21 -132 -132s59.21 -132 132 -132zM248 272
c44.1104 0 80 -35.8896 80 -80s-35.8896 -80 -80 -80s-80 35.8896 -80 80s35.8896 80 80 80zM248 144c26.4697 0 48 21.5303 48 48s-21.5303 48 -48 48s-48 -21.5303 -48 -48s21.5303 -48 48 -48zM248 440c136.97 0 248 -111.03 248 -248s-111.03 -248 -248 -248
s-248 111.03 -248 248s111.03 248 248 248zM248 -24c119.1 0 216 96.9004 216 216s-96.9004 216 -216 216s-216 -96.9004 -216 -216s96.9004 -216 216 -216z" />
    <glyph glyph-name="graduation-cap" unicode="&#xf19d;" 
d="M612.16 294.01c16.8994 -5.46973 27.8398 -20.3896 27.8398 -38.0098s-10.9404 -32.54 -27.8398 -38l-114.771 -37.1104l14.6104 -116.89c0 -35.3496 -85.96 -64 -192 -64s-192 28.6504 -192 64l14.6104 116.89l-53.4707 17.29
c-2.76953 -3.94922 -5.08008 -8.14941 -6.56934 -12.8096c7.93945 -5.83008 13.4297 -14.7705 13.4297 -25.3701c0 -12.7305 -7.57031 -23.5195 -18.3301 -28.6699l18.04 -111.86c1.62012 -9.98926 -3.91016 -19.4697 -11.3398 -19.4697h-40.75
c-7.42969 0 -12.9502 9.48047 -11.3398 19.4697l18.0498 111.86c-10.7598 5.15039 -18.3301 15.9395 -18.3301 28.6699c0 12.6797 7.53027 23.4102 18.2197 28.5898c1.58984 6.96973 4.03027 13.6201 7.33008 19.7998l-29.71 9.60059
c-16.8994 5.46973 -27.8398 20.3896 -27.8398 38.0098s10.9404 32.54 27.8496 38.0098l265 85.6807c17.8105 5.75 36.5 5.75 54.3105 0zM479.48 66.1396l-13.0801 104.73l-119.24 -38.5498c-28.5898 -9.23047 -51.71 -0.839844 -54.3105 0l-119.239 38.5498
l-13.0908 -104.73c10.7607 -11.3301 65.4404 -34.1396 159.48 -34.1396s148.72 22.8096 159.48 34.1396zM602.28 248.42c7.89941 2.56055 7.37988 12.7705 -0.0107422 15.1602l-265 85.6797c-6.71973 2.16992 -19.46 4.87988 -34.5596 0l-265 -85.6797
c-7.45996 -2.41016 -7.84961 -12.5996 0 -15.1504l42.4902 -13.7393c9.56934 7.17969 20.6797 12.5098 33.0801 14.8291l203.779 38.2002c8.5 1.62012 17.04 -4.06934 18.6602 -12.7695c1.62988 -8.69043 -4.08984 -17.0498 -12.7793 -18.6699l-195.891 -36.7402
l175.67 -56.7998c11.3105 -3.66016 23.25 -3.66016 34.5605 0z" />
    <glyph glyph-name="closed-captioning" unicode="&#xf20a;" horiz-adv-x="512" 
d="M246.2 259.5l-9.7998 -15.2002c-2 -3 -5.7002 -3.7002 -8.60059 -1.5c-40.7002 31.2002 -113 14.2998 -113 -48.5c0 -64.7998 70.1006 -85.2998 111.601 -47.5996c2.69922 2.39941 6.7998 1.89941 9 -1l10.6992 -14.6006
c1.80078 -2.39941 1.5 -5.7998 -0.599609 -7.89941c-49.2002 -50 -165.5 -29.4004 -165.5 70.5996c0 96.2998 118.3 117.101 165.2 73.5c2.2002 -2.09961 2.59961 -5.39941 1 -7.7998zM464 384c26.5 0 48 -21.5 48 -48v-288c0 -26.5 -21.5 -48 -48 -48h-416
c-26.5 0 -48 21.5 -48 48v288c0 26.5 21.5 48 48 48h416zM480 48v288c0 8.7998 -7.2002 16 -16 16h-416c-8.7998 0 -16 -7.2002 -16 -16v-288c0 -8.7998 7.2002 -16 16 -16h416c8.7998 0 16 7.2002 16 16zM431 259.5l-9.7998 -15.2002c-2 -3 -5.7002 -3.7002 -8.60059 -1.5
c-40.6992 31.2002 -113 14.2998 -113 -48.5c0 -64.7998 70.1006 -85.2998 111.601 -47.5996c2.7002 2.39941 6.7998 1.89941 9 -1l10.7002 -14.6006c1.7998 -2.39941 1.5 -5.7998 -0.600586 -7.89941c-49.0996 -50.1006 -165.399 -29.5 -165.399 70.5
c0 96.2998 118.3 117.1 165.199 73.5c2.10059 -2 2.5 -5.2998 0.900391 -7.7002z" />
    <glyph glyph-name="object-group" unicode="&#xf247;" horiz-adv-x="512" 
d="M404 256c6.59961 0 12 -5.40039 12 -12v-168c0 -6.59961 -5.40039 -12 -12 -12h-200c-6.59961 0 -12 5.40039 -12 12v52h-84c-6.59961 0 -12 5.40039 -12 12v168c0 6.59961 5.40039 12 12 12h200c6.59961 0 12 -5.40039 12 -12v-52h84zM128 160h160v128h-160v-128z
M384 96v128h-64v-84c0 -6.59961 -5.40039 -12 -12 -12h-84v-32h160zM500 320h-20v-256h20c6.59961 0 12 -5.40039 12 -12v-72c0 -6.59961 -5.40039 -12 -12 -12h-72c-6.59961 0 -12 5.40039 -12 12v20h-320v-20c0 -6.59961 -5.40039 -12 -12 -12h-72
c-6.59961 0 -12 5.40039 -12 12v72c0 6.59961 5.40039 12 12 12h20v256h-20c-6.59961 0 -12 5.40039 -12 12v72c0 6.59961 5.40039 12 12 12h72c6.59961 0 12 -5.40039 12 -12v-20h320v20c0 6.59961 5.40039 12 12 12h72c6.59961 0 12 -5.40039 12 -12v-72
c0 -6.59961 -5.40039 -12 -12 -12zM32 384v-32h32v32h-32zM64 0v32h-32v-32h32zM416 52c0 6.59961 5.40039 12 12 12h20v256h-20c-6.59961 0 -12 5.40039 -12 12v20h-320v-20c0 -6.59961 -5.40039 -12 -12 -12h-20v-256h20c6.59961 0 12 -5.40039 12 -12v-20h320v20zM480 0
v32h-32v-32h32zM448 352h32v32h-32v-32z" />
    <glyph glyph-name="object-ungroup" unicode="&#xf248;" horiz-adv-x="576" 
d="M564 224h-20v-160h20c6.62695 0 12 -5.37305 12 -12v-72c0 -6.62695 -5.37305 -12 -12 -12h-72c-6.62695 0 -12 5.37305 -12 12v20h-224v-20c0 -6.62695 -5.37305 -12 -12 -12h-72c-6.62695 0 -12 5.37305 -12 12v72c0 6.62695 5.37305 12 12 12h20v32h-96v-20
c0 -6.62695 -5.37305 -12 -12 -12h-72c-6.62695 0 -12 5.37305 -12 12v72c0 6.62695 5.37305 12 12 12h20v160h-20c-6.62695 0 -12 5.37305 -12 12v72c0 6.62695 5.37305 12 12 12h72c6.62695 0 12 -5.37305 12 -12v-20h224v20c0 6.62695 5.37305 12 12 12h72
c6.62695 0 12 -5.37305 12 -12v-72c0 -6.62695 -5.37305 -12 -12 -12h-20v-32h96v20c0 6.62695 5.37305 12 12 12h72c6.62695 0 12 -5.37305 12 -12v-72c0 -6.62695 -5.37305 -12 -12 -12zM384 128h-32v-32h32v32zM352 384v-32h32v32h-32zM32 384v-32h32v32h-32zM64 96v32
h-32v-32h32zM84 160c6.62695 0 12 -5.37305 12 -12v-20h224v20c0 6.62695 5.37305 12 12 12h20v160h-20c-6.62695 0 -12 5.37305 -12 12v20h-224v-20c0 -6.62695 -5.37305 -12 -12 -12h-20v-160h20zM224 0v32h-32v-32h32zM480 52c0 6.62695 5.37305 12 12 12h20v160h-20
c-6.62695 0 -12 5.37305 -12 12v20h-96v-96h20c6.62695 0 12 -5.37305 12 -12v-72c0 -6.62695 -5.37305 -12 -12 -12h-72c-6.62695 0 -12 5.37305 -12 12v20h-96v-32h20c6.62695 0 12 -5.37305 12 -12v-20h224v20zM544 0v32h-32v-32h32zM512 256h32v32h-32v-32z" />
    <glyph glyph-name="hourglass-start" unicode="&#xf251;" horiz-adv-x="384" 
d="M368 416c0 -91.5234 -43.832 -193.559 -129.646 -224c85.5381 -30.3428 129.646 -132.179 129.646 -224h4c6.62695 0 12 -5.37305 12 -12v-8c0 -6.62695 -5.37305 -12 -12 -12h-360c-6.62695 0 -12 5.37305 -12 12v8c0 6.62695 5.37305 12 12 12h4
c0 91.5234 43.832 193.559 129.646 224c-85.5381 30.3428 -129.646 132.179 -129.646 224h-4c-6.62695 0 -12 5.37305 -12 12v8c0 6.62695 5.37305 12 12 12h360c6.62695 0 12 -5.37305 12 -12v-8c0 -6.62695 -5.37305 -12 -12 -12h-4zM48 416
c0 -110.457 64.4707 -200 144 -200s144 89.543 144 200h-288zM336 -32c0 110.457 -64.4707 200 -144 200s-144 -89.543 -144 -200h288zM285.621 352h-187.242c-5.55273 0 -10.2295 3.78027 -11.6016 8.90332c-0.740234 2.76465 -1.4375 5.61914 -2.05957 8.42969
c-1.66406 7.52246 4 14.667 11.7041 14.667h191.157c7.7041 0 13.3682 -7.14453 11.7041 -14.667c-0.62207 -2.81055 -1.31934 -5.66504 -2.05957 -8.42969c-1.37305 -5.12305 -6.0498 -8.90332 -11.6025 -8.90332zM269.66 301.088
c-2.15723 -3.01855 -4.39258 -5.90332 -6.77441 -8.73926c-2.30078 -2.7373 -5.6709 -4.34766 -9.24805 -4.34766h-123.275c-3.57617 0 -6.94727 1.61035 -9.24805 4.34766c-2.38086 2.83691 -4.61719 5.7207 -6.77441 8.73926
c-5.65723 7.91016 0.0878906 18.9121 9.81348 18.9121h135.693c9.72559 0 15.4697 -11.0029 9.81348 -18.9121z" />
    <glyph glyph-name="hourglass-half" unicode="&#xf252;" horiz-adv-x="384" 
d="M368 416c0 -91.5234 -43.832 -193.559 -129.646 -224c85.5381 -30.3428 129.646 -132.179 129.646 -224h4c6.62695 0 12 -5.37305 12 -12v-8c0 -6.62695 -5.37305 -12 -12 -12h-360c-6.62695 0 -12 5.37305 -12 12v8c0 6.62695 5.37305 12 12 12h4
c0 91.5234 43.832 193.559 129.646 224c-85.5381 30.3428 -129.646 132.179 -129.646 224h-4c-6.62695 0 -12 5.37305 -12 12v8c0 6.62695 5.37305 12 12 12h360c6.62695 0 12 -5.37305 12 -12v-8c0 -6.62695 -5.37305 -12 -12 -12h-4zM48 416
c0 -110.457 64.4707 -200 144 -200s144 89.543 144 200h-288zM336 -32c0 110.457 -64.4707 200 -144 200s-144 -89.543 -144 -200h288zM269.66 301.088c-2.15723 -3.01855 -4.39258 -5.90332 -6.77441 -8.73926c-2.30078 -2.7373 -5.6709 -4.34766 -9.24805 -4.34766
h-123.275c-3.57617 0 -6.94727 1.61035 -9.24805 4.34766c-2.38086 2.83691 -4.61719 5.7207 -6.77441 8.73926c-5.65723 7.91016 0.0878906 18.9121 9.81348 18.9121h135.693c9.72559 0 15.4697 -11.0029 9.81348 -18.9121zM98.3789 32h187.243
c5.55273 0 10.2305 -3.78027 11.6016 -8.90332c0.740234 -2.76465 1.4375 -5.61914 2.05957 -8.42969c1.66406 -7.52246 -4 -14.667 -11.7041 -14.667h-191.157c-7.7041 0 -13.3682 7.14453 -11.7041 14.667c0.620117 2.80371 1.30762 5.61621 2.05957 8.42969
c1.37207 5.12305 6.04883 8.90332 11.6016 8.90332z" />
    <glyph glyph-name="hourglass-end" unicode="&#xf253;" horiz-adv-x="384" 
d="M368 416c0 -91.5234 -43.832 -193.559 -129.646 -224c85.5381 -30.3428 129.646 -132.179 129.646 -224h4c6.62695 0 12 -5.37305 12 -12v-8c0 -6.62695 -5.37305 -12 -12 -12h-360c-6.62695 0 -12 5.37305 -12 12v8c0 6.62695 5.37305 12 12 12h4
c0 91.5234 43.832 193.559 129.646 224c-85.5381 30.3428 -129.646 132.179 -129.646 224h-4c-6.62695 0 -12 5.37305 -12 12v8c0 6.62695 5.37305 12 12 12h360c6.62695 0 12 -5.37305 12 -12v-8c0 -6.62695 -5.37305 -12 -12 -12h-4zM48 416
c0 -110.457 64.4707 -200 144 -200s144 89.543 144 200h-288zM336 -32c0 110.457 -64.4707 200 -144 200s-144 -89.543 -144 -200h288zM98.3789 32h187.243c5.55273 0 10.2305 -3.78027 11.6016 -8.90332c0.740234 -2.76465 1.4375 -5.61914 2.05957 -8.42969
c1.66406 -7.52246 -4 -14.667 -11.7041 -14.667h-191.157c-7.7041 0 -13.3682 7.14453 -11.7041 14.667c0.620117 2.80371 1.30762 5.61621 2.05957 8.42969c1.37207 5.12305 6.04883 8.90332 11.6016 8.90332zM114.341 82.9121
c2.15723 3.01855 4.39258 5.90332 6.77441 8.73926c2.30078 2.7373 5.6709 4.34766 9.24805 4.34766h123.275c3.57617 0 6.94727 -1.61035 9.24805 -4.34766c2.38086 -2.83691 4.61719 -5.7207 6.77441 -8.73926c5.65723 -7.91016 -0.0878906 -18.9121 -9.81348 -18.9121
h-135.694c-9.72461 0 -15.4697 11.0029 -9.8125 18.9121z" />
    <glyph glyph-name="hourglass" unicode="&#xf254;" horiz-adv-x="384" 
d="M368 416c0 -91.5234 -43.832 -193.559 -129.646 -224c85.5381 -30.3428 129.646 -132.179 129.646 -224h4c6.62695 0 12 -5.37305 12 -12v-8c0 -6.62695 -5.37305 -12 -12 -12h-360c-6.62695 0 -12 5.37305 -12 12v8c0 6.62695 5.37305 12 12 12h4
c0 91.5234 43.832 193.559 129.646 224c-85.5381 30.3428 -129.646 132.179 -129.646 224h-4c-6.62695 0 -12 5.37305 -12 12v8c0 6.62695 5.37305 12 12 12h360c6.62695 0 12 -5.37305 12 -12v-8c0 -6.62695 -5.37305 -12 -12 -12h-4zM48 416
c0 -110.457 64.4707 -200 144 -200s144 89.543 144 200h-288zM336 -32c0 110.457 -64.4707 200 -144 200s-144 -89.543 -144 -200h288z" />
    <glyph glyph-name="registered" unicode="&#xf25d;" horiz-adv-x="512" 
d="M256 440c136.967 0 248 -111.033 248 -248s-111.033 -248 -248 -248s-248 111.033 -248 248s111.033 248 248 248zM472 192c0 119.945 -97.3369 216 -216 216c-119.945 0 -216 -97.3369 -216 -216c0 -119.945 97.3369 -216 216 -216c119.945 0 216 97.3369 216 216z
M359.387 73.707c4.32129 -7.98926 -1.45703 -17.707 -10.5566 -17.7061h-19.416c-0.00292969 0 0.000976562 -0.0126953 -0.00195312 -0.0126953c-4.57129 0 -8.54785 2.56543 -10.5684 6.33398l-54.0039 100.531h-51.1113v-94.8535c0 -6.61719 -5.38281 -12 -12 -12
h-16.9072c-6.61719 0 -12 5.38281 -12 12v245.777c0 6.61621 5.38281 12 12 12h71.0859c57.123 0 93.917 -22.2646 93.917 -80.1982c0 -33.3936 -17.0049 -60.9258 -44.1182 -72.8252c1.88574 -3.12793 -2.95605 5.71289 53.6807 -99.0469zM266.016 201.235
c26.4102 0 42.1777 16.3076 42.1787 43.6221c0 41.4463 -30.4873 42.5391 -51.2031 42.5391h-43.2607v-86.1611h52.2852z" />
    <glyph glyph-name="industry" unicode="&#xf275;" horiz-adv-x="512" 
d="M477.267 285.466c15.7852 7.89355 34.7334 -3.45898 34.7334 -21.4658v-272c0 -13.2549 -10.7451 -24 -24 -24h-464c-13.2549 0 -24 10.7451 -24 24v400c0 13.2549 10.7451 24 24 24h80c13.2549 0 24 -10.7451 24 -24v-185.167l157.267 78.6328
c15.7852 7.89355 34.7334 -3.45898 34.7334 -21.4658v-57.167zM107.578 160.845c-5.30957 -2.65527 -11.5781 1.20801 -11.5781 7.15527v216h-64v-384h448v251.056l-180.422 -90.2109c-5.31055 -2.6543 -11.5781 1.20605 -11.5781 7.15527v83.0557z" />
    <glyph glyph-name="comment-alt" unicode="&#xf27a;" horiz-adv-x="512" 
d="M448 448c35.2998 0 64 -28.7002 64 -64v-288c0 -35.2998 -28.7002 -64 -64 -64h-144l-124.9 -93.5996c-2.19922 -1.7002 -4.69922 -2.40039 -7.09961 -2.40039c-6.2002 0 -12 4.90039 -12 12v84h-96c-35.2998 0 -64 28.7002 -64 64v288c0 35.2998 28.7002 64 64 64h384z
M480 96v288c0 17.5996 -14.4004 32 -32 32h-384c-17.5996 0 -32 -14.4004 -32 -32v-288c0 -17.5996 14.4004 -32 32 -32h128v-76l92.7998 69.5996l8.5 6.40039h154.7c17.5996 0 32 14.4004 32 32z" />
    <glyph glyph-name="id-card" unicode="&#xf2c2;" horiz-adv-x="576" 
d="M360 128c-4.40039 0 -8 3.59961 -8 8v16c0 4.40039 3.59961 8 8 8h112c4.40039 0 8 -3.59961 8 -8v-16c0 -4.40039 -3.59961 -8 -8 -8h-112zM360 192c-4.40039 0 -8 3.59961 -8 8v16c0 4.40039 3.59961 8 8 8h112c4.40039 0 8 -3.59961 8 -8v-16
c0 -4.40039 -3.59961 -8 -8 -8h-112zM360 64c-4.40039 0 -8 3.59961 -8 8v16c0 4.40039 3.59961 8 8 8h112c4.40039 0 8 -3.59961 8 -8v-16c0 -4.40039 -3.59961 -8 -8 -8h-112zM192 96c-44.2002 0 -80 35.7998 -80 80s35.7998 80 80 80s80 -35.7998 80 -80
s-35.7998 -80 -80 -80zM192 224c-26.5 0 -48 -21.5 -48 -48s21.5 -48 48 -48s48 21.5 48 48s-21.5 48 -48 48zM512 416c35.2998 0 64 -28.7002 64 -64v-320c0 -35.2998 -28.7002 -64 -64 -64h-448c-35.2998 0 -64 28.7002 -64 64v320c0 35.2998 28.7002 64 64 64h448zM272 0
h0.200195v15.0996c0 7 -2.10059 13.8008 -6 19.6006c-5.60059 8.2002 -15.7998 13.2002 -27.2998 13.2002c-12.5 0 -20.9004 -7 -46.8008 -7c-26 0 -34.3994 7 -46.7998 7c-11.5 0 -21.7002 -4.90039 -27.2998 -13.2002c-3.90039 -5.7998 -6 -12.6006 -6 -19.6006v-15.0996
h160zM544 32v256h-512v-256c0 -17.5996 14.4004 -32 32 -32h16v15.0996c0 13.9004 4.2002 26.8008 11.4004 37.5c12 18 32.5996 27.4004 53.7998 27.4004c19.5 0 24.3994 -7 46.7998 -7s27.2998 7 46.7998 7c21.1006 0 41.7002 -9.5 53.7998 -27.4004
c7.2002 -10.6992 11.4004 -23.5996 11.4004 -37.5v-15.0996h208c17.5996 0 32 14.4004 32 32zM544 320v32c0 17.5996 -14.4004 32 -32 32h-448c-17.5996 0 -32 -14.4004 -32 -32v-32h512z" />
    <glyph glyph-name="window-minimize" unicode="&#xf2d1;" horiz-adv-x="512" 
d="M496 -32h-480c-8.7998 0 -16 7.2002 -16 16s7.2002 16 16 16h480c8.7998 0 16 -7.2002 16 -16s-7.2002 -16 -16 -16z" />
    <glyph glyph-name="images" unicode="&#xf302;" horiz-adv-x="576" 
d="M528 416c26.5098 0 48 -21.4902 48 -48v-288c0 -26.5098 -21.4902 -48 -48 -48h-16v-16c0 -26.5098 -21.4902 -48 -48 -48h-416c-26.5098 0 -48 21.4902 -48 48v288c0 26.5098 21.4902 48 48 48h16v16c0 26.5098 21.4902 48 48 48h416zM480 16v16h-368
c-26.5098 0 -48 21.4902 -48 48v240h-16c-8.82227 0 -16 -7.17773 -16 -16v-288c0 -8.82227 7.17773 -16 16 -16h416c8.82227 0 16 7.17773 16 16zM544 80v288c0 8.82227 -7.17773 16 -16 16h-416c-8.82227 0 -16 -7.17773 -16 -16v-288c0 -8.82227 7.17773 -16 16 -16h416
c8.82227 0 16 7.17773 16 16zM176 248c-30.9277 0 -56 25.0723 -56 56s25.0723 56 56 56s56 -25.0723 56 -56s-25.0723 -56 -56 -56zM176 328c-13.2344 0 -24 -10.7656 -24 -24s10.7656 -24 24 -24s24 10.7656 24 24s-10.7656 24 -24 24zM416.971 304.971l88 -88
c4.5 -4.50098 7.0293 -10.6055 7.0293 -16.9707v-92c0 -6.62695 -5.37305 -12 -12 -12h-360c-6.62695 0 -12 5.37305 -12 12v28c0 6.62305 2.68555 12.627 7.03027 16.9707l88 88c9.37207 9.37305 24.5674 9.37305 33.9404 0l31.0293 -31.0293l95.0303 95.0293
c9.37305 9.37305 24.5674 9.37305 33.9404 0zM480 128v68.6855l-80 80l-112 -112l-48 48l-80 -80v-4.68555h320z" />
    <glyph glyph-name="inbox-in" unicode="&#xf310;" horiz-adv-x="576" 
d="M560.8 118.2c9.7002 -9 15.2002 -21.7002 15.2002 -35v-99.2002c0 -26.5 -21.5 -48 -48 -48h-480c-26.5 0 -48 21.5 -48 48v99.2002c0 13.2998 5.5 26 15.2002 35l94.5996 88.7002c2.40039 2.19922 6.2002 2.09961 8.5 -0.300781l13.7002 -14.5996
c2.2002 -2.40039 2.09961 -6.2002 -0.299805 -8.5l-59.2998 -55.5996h115.399l32 -64h136.4l32 64h115.5l-59.2998 55.5996c-2.40039 2.2998 -2.60059 6.09961 -0.300781 8.5l13.6006 14.5996c2.2998 2.40039 6.09961 2.60059 8.5 0.300781zM544 -16v96
c0 8.7998 -7.2002 16 -16 16h-120l-32 -64h-176l-32 64h-120c-8.7998 0 -16 -7.2002 -16 -16v-96c0 -8.7998 7.2002 -16 16 -16h480c8.7998 0 16 7.2002 16 16zM416 320c28.5 0 42.7002 -34.5 22.7002 -54.5996l-128 -128c-12.5 -12.5 -32.7998 -12.5 -45.2998 0l-128 128
c-20.2002 20.0996 -5.80078 54.5996 22.5996 54.5996h64v104c0 13.2002 10.7998 24 24 24h80c13.2002 0 24 -10.7998 24 -24v-104h64zM288 160l128 128h-96v128h-64v-128h-96z" />
    <glyph glyph-name="inbox-out" unicode="&#xf311;" horiz-adv-x="576" 
d="M560.8 118.2c9.7002 -9.10059 15.2002 -21.7002 15.2002 -35v-99.2002c0 -26.5 -21.5 -48 -48 -48h-480c-26.5 0 -48 21.5 -48 48v99.2002c0 13.2998 5.5 25.8994 15.2002 35l94.5996 88.7002c2.40039 2.19922 6.2002 2.09961 8.5 -0.300781l13.7002 -14.5996
c2.2002 -2.40039 2.09961 -6.2002 -0.299805 -8.5l-59.2998 -55.5996h115.399l32 -64h136.4l32 64h115.5l-59.2998 55.5996c-2.40039 2.2998 -2.60059 6.09961 -0.300781 8.5l13.6006 14.5996c2.2998 2.40039 6.09961 2.60059 8.5 0.300781zM544 -16v96
c0 8.7998 -7.2002 16 -16 16h-120l-32 -64h-176l-32 64h-120c-8.7998 0 -16 -7.2002 -16 -16v-96c0 -8.7998 7.2002 -16 16 -16h480c8.7998 0 16 7.2002 16 16zM160 256c-28.5 0 -42.7002 34.5 -22.7002 54.5996l128 128c12.5 12.5 32.7998 12.5 45.2998 0l128 -128
c20.2002 -20.0996 5.80078 -54.5996 -22.5996 -54.5996h-64v-104c0 -13.2002 -10.7998 -24 -24 -24h-80c-13.2002 0 -24 10.7998 -24 24v104h-64zM288 416l-128 -128h96v-128h64v128h96z" />
    <glyph glyph-name="arrow-alt-to-top" unicode="&#xf34d;" horiz-adv-x="384" 
d="M153.1 0h77.8008c8.7998 0 16 7.2002 16 16v144h93.8994c7.2002 0 10.7002 8.59961 5.7002 13.5996l-143.1 143.5c-6.30078 6.30078 -16.4004 6.30078 -22.7002 0l-143.101 -143.5c-5 -5 -1.39941 -13.5996 5.7002 -13.5996h93.7998v-144c0 -8.7998 7.2002 -16 16 -16z
M153.1 -32c-26.3994 0 -48 21.5 -47.8994 48v112h-61.9004c-35.7002 0 -53.3994 43.0996 -28.3994 68.2002l143.1 143.6c18.7998 18.7998 49.2002 18.7998 68 0l143 -143.6c25.2002 -25.2002 7.2002 -68.2002 -28.2998 -68.2002h-61.9004v-112c0 -26.5 -21.5 -48 -48 -48
h-77.7002zM0 404c0 6.59961 5.40039 12 12 12h360c6.59961 0 12 -5.40039 12 -12v-8c0 -6.59961 -5.40039 -12 -12 -12h-360c-6.59961 0 -12 5.40039 -12 12v8z" />
    <glyph glyph-name="gem" unicode="&#xf3a5;" horiz-adv-x="576" 
d="M463.7 448c4.2002 0 8.09961 -2.2002 10.2998 -5.7998l100.3 -162.8c2.60059 -4.40039 2.2002 -10.1006 -1.2002 -14l-276 -325.2c-4.7998 -5.60059 -13.3994 -5.60059 -18.1992 0l-276 325.2c-3.40039 3.89941 -3.90039 9.59961 -1.2002 14l100.3 162.8
c2.2002 3.59961 6.09961 5.7998 10.2998 5.7998h351.4zM450.1 412h-65.5l56.8008 -124h83zM345 412h-114l-56.9004 -124h227.7zM125.9 412l-74.3008 -124h83l56.8008 124h-65.5zM61.2002 256l154.8 -192l-81.7998 192h-73zM173.2 256l114.8 -263.8l114.7 263.8h-229.5z
M360 64l154.8 192h-73z" />
    <glyph glyph-name="basketball-hoop" unicode="&#xf435;" 
d="M640 108.3c0 -19.5 -10.4004 -36.8994 -28.5 -44.3994l-108.3 -44.5l2.5 35.6992l93.5996 38.4004c6 2.5 9.90039 8.2998 9.90039 14.7998v123.7c-82.1006 224 -493.5 224.9 -576 0v-123.7c0 -6.5 3.89941 -12.2998 9.89941 -14.7998l93.6006 -38.4004l2.5 -35.6992
l-108.2 44.5c-18.0996 7.5 -31 24.8994 -31 44.3994l0.799805 131.4c0.600586 2 68.5 192.3 320.4 192.3c251.899 0 317.3 -190.3 317.899 -192.3c1.2002 -7.10059 0.900391 9.09961 0.900391 -131.4zM462.4 -64l-75.4004 71.5996l-65.7998 -71.5996l-65.7998 71.5996
l-75.4004 -71.5996l-18.2002 224h-24.5996c-4.40039 0 -8 3.59961 -8 8v16c0 4.40039 3.59961 8 8 8h368c4.39941 0 8 -3.59961 8 -8v-16c0 -4.40039 -3.60059 -8 -8 -8h-24.6006zM207.9 95.5996l46.6992 -43.5996l44 44l-42.0996 42.0996zM321.2 118.6l41.3994 41.4004
h-82.7998zM343.8 96l44 -44l46.7002 43.5996l-48.5 42.5zM448.5 160h-39l36.5 -31.9004zM193.9 160l2.59961 -31.9004l36.5 31.9004h-39.0996zM232 29.4004l-29.9004 27.8994l4.30078 -53.5zM364.4 30.2002l-43.2002 43.2002l-43.2002 -43.2002l43.2002 -40.2998z
M436 3.7998l4.2998 53.5l-29.8994 -27.8994zM465.2 224h-32v57.9004h-224v-57.9004h-32v89.9004h288v-89.9004z" />
    <glyph glyph-name="hockey-sticks" unicode="&#xf454;" 
d="M624 96c8.7998 0 16 -7.2002 16 -16v-127.9c0 -8.7998 -7.2002 -16 -16 -16h-186.3c-36.4004 0 -69.6006 20.6006 -85.9004 53.1006l-31.7998 63.5996l-31.7998 -63.5996c-16.2998 -32.5 -49.5 -53.1006 -85.9004 -53.1006h-186.3c-8.7998 0 -16 7.2002 -16 16v128
c0 8.80078 7.2002 16 16 16h213.2c3.09961 0 5.7998 1.7002 7.2002 4.40039l29.7998 59.5996l-118 236.2c-3.90039 7.90039 -0.700195 17.5 7.2002 21.5l57.2998 28.6006c7.89941 3.89941 17.5996 0.699219 21.5 -7.2002l85.7998 -171.8l85.7998 171.699
c4 8 13.6006 11.2002 21.5 7.2002l57.1006 -28.5996c7.89941 -4 11.0996 -13.6006 7.19922 -21.5l-118 -236.2l29.8008 -59.5996c1.39941 -2.7002 4.19922 -4.40039 7.19922 -4.40039h213.4zM184.1 396.2l100.101 -200.4l17.8994 35.7998l-89.3994 178.9zM32 -32h32v96h-32
v-96zM259.6 3.40039l196.301 392.8l-28.6006 14.2998l-162.1 -324.4c-6.7998 -13.5996 -20.5 -22.0996 -35.7998 -22.0996h-133.4v-96h106.4c24.3994 0 46.2998 13.5996 57.1992 35.4004zM437.7 -32v0.0996094h106.3v96h-133.2c-15.2998 0 -29 8.5 -35.7998 22.1006
l-19.0996 38.0996l-17.9004 -35.7998l42.5 -85.0996c10.9004 -21.8008 32.7998 -35.4004 57.2002 -35.4004zM608 -32v96h-32v-96h32z" />
    <glyph glyph-name="pennant" unicode="&#xf456;" horiz-adv-x="576" 
d="M552 256.7c18.7002 3.7998 31.2002 -18.1006 19.4004 -32.4004c-80.6006 -97.8994 -185.601 -120.8 -190 -121.7c-61.9004 -13 -109.2 -17.3994 -137.9 -18.7998c-77.5 -3.7998 -139.3 -33 -179.5 -60.2002v-79.5996c0 -4.40039 -3.59961 -8 -8 -8h-16
c-4.40039 0 -8 3.59961 -8 8v410.9c-18.5996 6.69922 -32 24.2998 -32 45.0996c0 26.5 21.5 48 48 48s48 -21.5 48 -48c0 -13.5 -5.7002 -25.7002 -14.7002 -34.5c51.9004 6.59961 123 0.5 210 -45.2002c145.101 -76.0996 230.7 -69.7998 260.7 -63.5996zM48 416
c-8.7998 0 -16 -7.2002 -16 -16s7.2002 -16 16 -16s16 7.2002 16 16s-7.2002 16 -16 16zM374.9 133.9c0.899414 0.199219 81.5 18 151 87.6992c-47.2002 -2 -130.601 8 -249.5 70.4004c-92.9004 48.7998 -165.2 48.9004 -212.4 38.2998v-268.8
c32.5996 19.0996 93.0996 50 177.9 54.2002c27.5996 1.39941 73.0996 5.7002 133 18.2002z" />
    <glyph glyph-name="dolly-flatbed-empty" unicode="&#xf476;" 
d="M632 32c4.40039 0 8 -3.59961 8 -8v-16c0 -4.40039 -3.59961 -8 -8 -8h-90.7998c1.7002 -5 2.89941 -10.4004 2.89941 -16c0 -26.5 -21.5 -48 -48 -48s-48 21.5 -48 48c0 5.59961 1.10059 11 2.90039 16h-197.9c1.7002 -5 2.90039 -10.4004 2.90039 -16
c0 -26.5 -21.5 -48 -48 -48s-48 21.5 -48 48c0 5.59961 1.09961 11 2.90039 16h-58.9004c-4.40039 0 -8 3.59961 -8 8v408h-88c-4.40039 0 -8 3.59961 -8 8v16c0 4.40039 3.59961 8 8 8h112c4.40039 0 8 -3.59961 8 -8v-408h504zM224 -16c0 8.7998 -7.2002 16 -16 16
s-16 -7.2002 -16 -16s7.2002 -16 16 -16s16 7.2002 16 16zM512 -16c0 8.7998 -7.2002 16 -16 16s-16 -7.2002 -16 -16s7.2002 -16 16 -16s16 7.2002 16 16z" />
    <glyph glyph-name="id-card-alt" unicode="&#xf47f;" horiz-adv-x="576" 
d="M288 240c44.2002 0 80 -35.7998 80 -80s-35.7998 -80 -80 -80s-80 35.7998 -80 80s35.7998 80 80 80zM288 112c26.5 0 48 21.5 48 48s-21.5 48 -48 48s-48 -21.5 -48 -48s21.5 -48 48 -48zM512 384c35.2998 0 64 -28.7002 64 -64v-320c0 -35.2998 -28.7002 -64 -64 -64
h-448c-35.2998 0 -64 28.7002 -64 64v320c0 35.2998 28.7002 64 64 64h160v32c0 17.7002 14.2998 32 32 32h64c17.7002 0 32 -14.2998 32 -32v-32h160zM256 416v-96h64v96h-64zM384 -32v21.9004c0 9 -2.59961 17.5996 -7.59961 25
c-7.30078 10.7998 -20.3008 17.1992 -35 17.1992c-15.8008 0 -23.5 -8 -53.4004 -8s-37.5 8 -53.4004 8c-14.6992 0 -27.7998 -6.5 -35 -17.1992c-5 -7.40039 -7.59961 -16 -7.59961 -25v-21.9004h192zM544 0v320c0 17.5996 -14.4004 32 -32 32h-160v-64h-128v64h-160
c-17.5996 0 -32 -14.4004 -32 -32v-320c0 -17.5996 14.4004 -32 32 -32h96.2002v21.9004c0 15.7998 4.7998 30.5996 13 42.7998c13.7998 20.5 37.2998 31.2998 61.5 31.2998c22.2002 0 27.7998 -8 53.3994 -8c25.6006 0 31.2002 8 53.4004 8
c24.2002 0 47.7002 -10.7998 61.5 -31.2998c8.2002 -12.2002 13 -26.9004 13 -42.7998v-21.9004h96c17.5996 0 32 14.4004 32 32z" />
    <glyph glyph-name="inventory" unicode="&#xf480;" 
d="M632 448c4.40039 0 8 -4.09961 8 -9.09961v-502.9h-32v32h-576v-32h-32v502.9c0 5 3.59961 9.09961 8 9.09961h16c4.40039 0 8 -4.09961 8 -9.09961v-182.9h320v144c0 8.7998 7.2002 16 16 16h160c8.7998 0 16 -7.2002 16 -16v-144h64v182.9
c0 5 3.59961 9.09961 8 9.09961h16zM384 384v-128h128v128h-128zM256 0v128h-128v-128h128zM288 0h128v128h-128v-128zM608 0v224h-576v-224h64v144c0 8.7998 7.2002 16 16 16h320c8.7998 0 16 -7.2002 16 -16v-144h160z" />
    <glyph glyph-name="gas-pump" unicode="&#xf52f;" horiz-adv-x="512" 
d="M502.6 328c6 -6 9.40039 -14.0996 9.40039 -22.5996v-241.4c0 -38.7998 -34.7002 -69.7002 -74.7998 -63.0996c-31.5 5.19922 -53.2002 34.7998 -53.2002 66.6992v44.4004c0 26.5 -21.5 48 -48 48h-16v-192h24c4.40039 0 8 -3.59961 8 -8v-16
c0 -4.40039 -3.59961 -8 -8 -8h-336c-4.40039 0 -8 3.59961 -8 8v16c0 4.40039 3.59961 8 8 8h24v416c0 35.2998 28.7002 64 64 64h160c35.2998 0 64 -28.7002 64 -64v-192h16c44.2002 0 80 -35.7998 80 -80v-48c0 -19.5 17.4004 -34.9004 37.4004 -31.5996
c15.6992 2.59961 26.5996 17.5 26.5996 33.3994v174.2h-16c-26.5 0 -48 21.5 -48 48v81.4004l-29.5996 29.6992c-3.10059 3.10059 -3.10059 8.2002 0 11.3008l11.2998 11.2998c3.09961 3.09961 8.2002 3.09961 11.2998 0zM480 272v33.4004l-32 32v-49.4004
c0 -8.7998 7.2002 -16 16 -16h16zM288 -32v256h-224v-256h224zM288 256v128c0 17.5996 -14.4004 32 -32 32h-160c-17.5996 0 -32 -14.4004 -32 -32v-128h224z" />
    <glyph glyph-name="infinity" unicode="&#xf534;" 
d="M488.88 352c83.3398 0 151.12 -71.7803 151.12 -160s-67.7803 -160 -151.12 -160c-82.5703 0 -142.67 82.4502 -168.88 126.46c-26.21 -44.0098 -86.3203 -126.46 -168.88 -126.46c-83.3398 0 -151.12 71.7803 -151.12 160s67.7803 160 151.12 160
c82.5703 0 142.67 -82.4502 168.88 -126.45c26.21 44 86.3096 126.45 168.88 126.45zM151.12 64c78.04 0 136.47 100.61 150.939 128c-14.4697 27.3896 -72.9092 128 -150.939 128c-65.6797 0 -119.12 -57.4199 -119.12 -128s53.4404 -128 119.12 -128zM488.88 64
c65.6797 0 119.12 57.4199 119.12 128s-53.4404 128 -119.12 128c-78.0303 0 -136.47 -100.61 -150.939 -128c14.4697 -27.3896 72.9092 -128 150.939 -128z" />
    <glyph glyph-name="cocktail" unicode="&#xf561;" horiz-adv-x="576" 
d="M391.32 320c21.9395 0 32.9297 -26.5303 17.4102 -42.0596l-54.3701 -54.3701l-22.6602 -22.6602l-107.7 -107.7v-125.21h53.3203c14.7295 0 26.6699 -11.9404 26.6699 -26.6699c0 -2.94043 -2.37988 -5.33008 -5.33008 -5.33008h-181.33
c-2.94043 0 -5.33008 2.37988 -5.33008 5.33008c0 14.7295 11.9404 26.6699 26.6699 26.6699h53.3301v125.21l-184.74 184.74c-15.5195 15.5195 -4.5293 42.0498 17.4199 42.0498h366.641zM208 122.47l165.53 165.53h-331.061zM432 448c79.5303 0 144 -64.4697 144 -144
s-64.4697 -144 -144 -144c-27.4102 0 -52.7695 8.08008 -74.5801 21.3799l23.5205 23.5205c15.3799 -7.9707 32.5693 -12.9004 51.0596 -12.9004c61.7598 0 112 50.2402 112 112s-50.2402 112 -112 112c-44.4697 0 -82.3496 -26.3203 -100.3 -64h-34.3105
c19.7207 55.7695 72.0605 96 134.61 96zM432 256c26.4697 0 48 21.5303 48 48s-21.5303 48 -48 48h-63.6201c14.6104 19.3203 37.5703 32 63.6201 32c44.1201 0 80 -35.8896 80 -80s-35.8799 -80 -80 -80c-9.5 0 -18.5 1.9502 -26.96 5l26.3203 26.3203
c0.209961 0.209961 0.30957 0.479492 0.509766 0.689453c0.0498047 0 0.0898438 -0.00976562 0.129883 -0.00976562z" />
    <glyph glyph-name="fish" unicode="&#xf578;" 
d="M363.44 368c152.739 0 276.56 -140.8 276.56 -176s-123.82 -176 -276.56 -176c-99.96 0 -187.271 60.25 -235.851 111.8l-97.04 -72.6602c-3.64941 -2.72949 -7.78027 -3.93945 -11.7998 -3.93945c-10.8398 0 -20.8701 8.78027 -18.3604 20.0596l26.8799 120.74
l-26.8896 120.75c-2.50977 11.2803 7.50977 20.0596 18.3604 20.0596c4.01953 0 8.14941 -1.20996 11.7998 -3.93945l97.04 -72.6602c48.5898 51.54 135.9 111.79 235.86 111.79zM363.44 48c125.56 0 232.42 111.33 244.06 144c-11.6396 32.6699 -118.5 144 -244.06 144
c-86.0205 0 -166.21 -52.5596 -212.57 -101.76l-19.6006 -20.79l-22.8691 17.1201l-68.3301 51.1699l18.4297 -82.7998l1.5498 -6.9502l-1.5498 -6.9502l-18.4297 -82.7998l68.3301 51.1699l22.8691 17.1201l19.6006 -20.79c46.3604 -49.1807 126.55 -101.74 212.57 -101.74
zM448 216c13.25 0 24 -10.7402 24 -24c0 -13.25 -10.75 -24 -24 -24s-24 10.75 -24 24c0 13.2598 10.75 24 24 24z" />
    <glyph glyph-name="highlighter" unicode="&#xf591;" horiz-adv-x="544" 
d="M528.61 372.09c19.6201 -19.6201 20.5996 -51.1201 2.25 -71.9395l-248.65 -285.9c-5.09961 -5.78027 -18.5 -15.8301 -36.5098 -10.3203l-40.9102 12.5303l-36.46 -36.4697c-6.75 -6.75 -17.6904 -6.75 -24.4404 0l-0.0195312 0.0195312l-43.9902 -44.0098
l-99.8799 32.0195l76.46 79.4209l-0.25 0.259766c-6.74023 6.75 -6.74023 17.6797 0 24.4297l36.54 36.5605l-12.4902 41.0195c-4 13.1396 0.0400391 27.4102 10.3301 36.4902l285.641 248.649c9.24023 8.17676 21.4102 13.1504 34.707 13.1504h0.0429688
c13.4697 0 26.9297 -5.16016 37.1396 -15.3896zM91.0498 -27.5498l30.1904 30.21l-22.1406 22.1494l-40.2598 -42.0293zM258.21 35.4404l39.1104 44.9492l-120.74 120.801l-44.9697 -39.1504c-0.720703 -0.639648 -1.07031 -1.87012 -0.730469 -3l12.4902 -41.0205
l5.59961 -18.3799l-39.71 -39.7197l46.8506 -46.8799l39.6494 39.6699l18.3906 -5.62988l40.9092 -12.5303c0.290039 -0.0302734 0.570312 -0.0498047 0.830078 -0.0498047c0.919922 0 1.69043 0.219727 2.32031 0.94043zM506.72 321.17
c7.2998 8.28027 6.91016 20.6299 -0.739258 28.2803l-60.4805 60.5195c-10.5498 10.5605 -23.5996 4.85059 -28.0996 0.879883l-216.641 -188.59l117.601 -117.66z" />
    <glyph glyph-name="books" unicode="&#xf5db;" horiz-adv-x="576" 
d="M575.33 -8.42969c2.17969 -6.20996 -1.12988 -13.0898 -7.36035 -15.2803l-7.5498 -2.63965c-6.25 -2.19043 -12.7295 0.0595703 -16.3799 10.46c-16.3496 -2.33008 -59.04 -16.7305 -75.5 -26.4199c3.55957 -10.1504 0.169922 -16.1309 -6.27051 -18.3809
c-6.5293 -2.2793 -8.48926 -3.30957 -11.4893 -3.30957c-4.9502 0 -9.62012 3.09961 -11.3506 8.01953l-151.43 385.101v-361.12c0 -17.6699 -14.3301 -32 -32 -32h-96c-5.95996 0 -11.2197 2.05957 -16 4.90039c-4.78027 -2.83008 -10.04 -4.90039 -16 -4.90039h-96
c-17.6699 0 -32 14.3301 -32 32v448c0 17.6699 14.3301 32 32 32h96c5.95996 0 11.2197 -2.07031 15.9902 -4.90039c4.7793 2.83008 10.04 4.90039 16 4.90039h96c17.6699 0 32 -14.3301 32 -32v-6.87988c4.42969 -2.61035 5.06934 -5.4502 6.39941 -9.23047
c16.3506 2.33008 59.04 16.7305 75.5 26.4199c-3.5498 10.1406 -0.189453 16.1201 6.27051 18.3809c6.51953 2.2793 8.47949 3.30957 11.4902 3.30957c4.95996 0 9.62988 -3.09961 11.3496 -8.01953zM128 -32v64h-96v-64h96zM128 64v256h-96v-256h96zM128 352v64h-96v-64h96
zM256 -32v64h-96v-64h96zM256 64v256h-96v-256h96zM256 352v64h-96v-64h96zM459.15 -15.54c11.4893 6.09961 50.2695 21.6797 75.5 26.4297l-155.36 388.65c-11.4902 -6.08984 -50.2803 -21.6797 -75.5 -26.4199z" />
    <glyph glyph-name="charging-station" unicode="&#xf5e7;" horiz-adv-x="576" 
d="M560 320c8.83984 0 16 -7.16016 16 -16v-48c0 -38.7002 -27.4805 -70.9805 -64 -78.3896v-113.61c0 -35.2998 -28.7197 -64 -64 -64s-64 28.7002 -64 64v48c0 26.4697 -21.5303 48 -48 48h-16v-192h24c4.41992 0 8 -3.58008 8 -8v-16c0 -4.41992 -3.58008 -8 -8 -8h-336
c-4.41992 0 -8 3.58008 -8 8v16c0 4.41992 3.58008 8 8 8h24v416c0 35.3496 28.6504 64 64 64h160c35.3496 0 64 -28.6504 64 -64v-192h16c44.1201 0 80 -35.8896 80 -80v-48c0 -17.6396 14.3398 -32 32 -32s32 14.3604 32 32v113.61
c-36.5195 7.41992 -64 39.6895 -64 78.3896v48c0 8.83984 7.16016 16 16 16h16v48c0 8.83984 7.16016 16 16 16s16 -7.16016 16 -16v-48h32v48c0 8.83984 7.16016 16 16 16s16 -7.16016 16 -16v-48h16zM288 -32v416c0 17.6396 -14.3604 32 -32 32h-160
c-17.6396 0 -32 -14.3604 -32 -32v-416h224zM544 256v32h-96v-32c0 -26.4697 21.5303 -48 48 -48s48 21.5303 48 48zM240 272c14.2402 0 21.3496 -17.2402 11.3096 -27.3096l-112 -112c-11.6191 -11.5703 -30.7295 -0.310547 -26.8398 15.1895l19.0303 76.1201h-19.5
c-11.2803 0 -19.0596 11.4102 -14.8398 21.9404l32 80c2.39941 6.0791 8.30957 10.0596 14.8398 10.0596h80c11.1299 0 18.9004 -11.1299 14.9697 -21.6201l-15.8799 -42.3799h16.9102zM157.53 196.16l43.8301 43.8398c-14.8799 0 -19.6201 12.8701 -16.3408 21.6201
l15.8809 42.3799h-46.0605l-19.2197 -48h16.3799c10.3496 0 18.0596 -9.7002 15.5303 -19.8701z" />
    <glyph glyph-name="globe-stand" unicode="&#xf5f6;" horiz-adv-x="448" 
d="M360.21 -32c13.2705 0 24.0205 -10.7402 24.0098 -24c0 -4.41992 -3.58008 -8 -8 -8h-304.189c-4.41992 0 -8 3.58008 -8 8c0 13.2598 10.75 24 24.0098 24h120.09v48.5c-52.7402 0.139648 -105.46 17.3496 -149 51.9697l-34.1396 -34.1201
c-1.4502 -1.44629 -3.45312 -2.34082 -5.66113 -2.34082s-4.20898 0.894531 -5.65918 2.34082l-11.3203 11.3105c-1.4502 1.44629 -2.34863 3.44824 -2.34863 5.65625s0.898438 4.20801 2.34863 5.65332l55.4502 55.4199
c1.08008 -1.12988 2.04004 -2.35938 3.15039 -3.46973c39.3096 -39.2803 91.5801 -60.9199 147.17 -60.9199s107.86 21.6396 147.17 60.9199c39.3096 39.29 60.96 91.5205 60.96 147.08s-21.6504 107.79 -60.96 147.08c-1.12012 1.11035 -2.33984 2.05957 -3.48047 3.15039
l39.4502 39.4297c1.4502 1.44629 3.45312 2.34082 5.66113 2.34082s4.20898 -0.894531 5.65918 -2.34082l11.3301 -11.3203c1.4502 -1.44629 2.34863 -3.44824 2.34863 -5.65625s-0.898438 -4.20801 -2.34863 -5.65332l-18.1406 -18.1201
c75.0107 -94.2002 69.3701 -231.45 -17.8398 -318.61c-38.75 -38.7402 -87.4199 -61.2803 -137.79 -67.8896v-50.4102h120.07zM208.12 80c-45.0703 0 -90.1396 17.1797 -124.53 51.5498c-68.7695 68.7305 -68.7695 180.17 0 248.9
c34.3906 34.3701 79.46 51.5498 124.53 51.5498s90.1396 -17.1797 124.53 -51.5498c68.7695 -68.7305 68.7695 -180.17 0 -248.9c-34.3906 -34.3701 -79.46 -51.5498 -124.53 -51.5498zM106.23 357.82c-27.2109 -27.2002 -42.2002 -63.3604 -42.2002 -101.82
s14.9893 -74.6201 42.2002 -101.82c27.2197 -27.1992 63.3994 -42.1797 101.89 -42.1797s74.6699 14.9805 101.89 42.1797c27.21 27.2002 42.2002 63.3604 42.2002 101.82s-14.9902 74.6201 -42.2002 101.82c-27.2197 27.1992 -63.3994 42.1797 -101.89 42.1797
s-74.6699 -14.9805 -101.89 -42.1797z" />
    <glyph glyph-name="monitor-heart-rate" unicode="&#xf611;" horiz-adv-x="576" 
d="M544 448c17.6699 0 32 -14.3301 32 -32v-448c0 -17.6699 -14.3301 -32 -32 -32h-512c-17.6699 0 -32 14.3301 -32 32v448c0 17.6699 14.3301 32 32 32h512zM544 -32v448h-512v-208.01h144l-0.00585938 0.015625c6.26367 0 11.6904 -3.60742 14.3154 -8.85547
l30.7207 -61.4502l51.7793 155.37c4.38086 13.0596 26 13.0596 30.3809 0l28.3398 -85.0605h140.47c4.41992 0 8 -3.58008 8 -8v-16c0 -4.41992 -3.58008 -8 -8 -8h-152c-6.88965 0 -13.0098 4.41016 -15.1904 10.9502l-16.8096 50.4502l-48.8301 -146.47
c-2.05957 -6.14062 -7.58984 -10.4404 -14.0596 -10.8906c-0.370117 -0.0302734 -0.740234 -0.0498047 -1.12012 -0.0498047c-6.03027 0 -11.5898 3.38965 -14.3105 8.83984l-43.5596 87.1602h-134.12v-208h512z" />
    <glyph glyph-name="oil-can" unicode="&#xf613;" 
d="M629.8 287.69c4.70996 1.33984 10.2002 -1.9502 10.1904 -7.69043v-18.0801c0 -2.12012 -0.839844 -4.16016 -2.33984 -5.66016l-212.261 -214.75c-6.00977 -6.08984 -14.21 -9.50977 -22.7598 -9.50977h-274.63c-17.6699 0 -32 14.3301 -32 32v46.5596l-69.7197 12.6807
c-15.2207 2.75977 -26.2803 16.0195 -26.2803 31.4795v94.9502c0 18.4102 16.54 35.3496 37.7197 31.4902l138.28 -25.1406v-0.0195312h64v64h-72c-4.41992 0 -8 3.58008 -8 8v16c0 4.41992 3.58008 8 8 8h176c4.41992 0 8 -3.58008 8 -8v-16c0 -4.41992 -3.58008 -8 -8 -8
h-72v-64h64.8896c10.2598 -0.00390625 20.0205 -2.46191 28.6201 -6.75977l50.4902 -25.2402zM96 143.09v94.9502l-63.96 11.6299l-0.0400391 -94.9395zM402.63 64l171.79 173.81l-155.35 -46.2793c-3.89062 -1.16016 -8.08008 -0.799805 -11.7207 1.01953l-56.1494 28.0703
c-4.44043 2.21973 -9.33984 3.37988 -14.3105 3.37988h-208.89v-160h274.63zM578.84 153.09c5.94043 8.66016 20.3799 8.66016 26.3203 0.00976562c10.46 -15.1592 34.8398 -52.6299 34.8398 -73.0801c0 -26.4697 -21.5303 -48 -48 -48s-48 21.5303 -48 48
c0 20.4502 24.3799 57.9209 34.8398 73.0703zM592 64.0195c8.80957 0 16 7.1709 16 15.9902c-0.120117 4.87988 -6.78027 18.8105 -16 34.3301c-9.21973 -15.5098 -15.8799 -29.4502 -16 -34.3398c0 -8.80957 7.19043 -15.9805 16 -15.9805z" />
    <glyph glyph-name="cross" unicode="&#xf654;" horiz-adv-x="384" 
d="M352 320c17.6699 0 32 -14.3301 32 -32v-64c0 -17.6699 -14.3301 -32 -32 -32h-96v-224c0 -17.6699 -14.3301 -32 -32 -32h-64c-17.6699 0 -32 14.3301 -32 32v224h-96c-17.6699 0 -32 14.3301 -32 32v64c0 17.6699 14.3301 32 32 32h96v96c0 17.6699 14.3301 32 32 32
h64c17.6699 0 32 -14.3301 32 -32v-96h96zM352 224v64h-128v128h-64v-128h-128v-64h128v-256h64v256h128z" />
    <glyph glyph-name="poll" unicode="&#xf681;" horiz-adv-x="448" 
d="M400 416c26.5 0 48 -21.5 48 -48v-352c0 -26.5 -21.5 -48 -48 -48h-352c-26.5 0 -48 21.5 -48 48v352c0 26.5 21.5 48 48 48h352zM416 16v352c0 8.82031 -7.17969 16 -16 16h-352c-8.82031 0 -16 -7.17969 -16 -16v-352c0 -8.82031 7.17969 -16 16 -16h352
c8.82031 0 16 7.17969 16 16zM136 224c4.41992 0 8 -3.58008 8 -8v-144c0 -4.41992 -3.58008 -8 -8 -8h-16c-4.41992 0 -8 3.58008 -8 8v144c0 4.41992 3.58008 8 8 8h16zM232 320c4.41992 0 8 -3.58008 8 -8v-240c0 -4.41992 -3.58008 -8 -8 -8h-16
c-4.41992 0 -8 3.58008 -8 8v240c0 4.41992 3.58008 8 8 8h16zM328 160c4.41992 0 8 -3.58008 8 -8v-80c0 -4.41992 -3.58008 -8 -8 -8h-16c-4.41992 0 -8 3.58008 -8 8v80c0 4.41992 3.58008 8 8 8h16z" />
    <glyph glyph-name="poll-h" unicode="&#xf682;" horiz-adv-x="448" 
d="M448 16c0 -26.5 -21.5 -48 -48 -48h-352c-26.5 0 -48 21.5 -48 48v352c0 26.5 21.5 48 48 48h352c26.5 0 48 -21.5 48 -48v-352zM48 0h352c8.82031 0 16 7.17969 16 16v352c0 8.82031 -7.17969 16 -16 16h-352c-8.82031 0 -16 -7.17969 -16 -16v-352
c0 -8.82031 7.17969 -16 16 -16zM256 280c0 -4.41992 -3.58008 -8 -8 -8h-144c-4.41992 0 -8 3.58008 -8 8v16c0 4.41992 3.58008 8 8 8h144c4.41992 0 8 -3.58008 8 -8v-16zM352 184c0 -4.41992 -3.58008 -8 -8 -8h-240c-4.41992 0 -8 3.58008 -8 8v16
c0 4.41992 3.58008 8 8 8h240c4.41992 0 8 -3.58008 8 -8v-16zM192 88c0 -4.41992 -3.58008 -8 -8 -8h-80c-4.41992 0 -8 3.58008 -8 8v16c0 4.41992 3.58008 8 8 8h80c4.41992 0 8 -3.58008 8 -8v-16z" />
    <glyph glyph-name="signal-1" unicode="&#xf68c;" 
d="M80 64c4.41992 0 8 -3.58008 8 -8v-112c0 -4.41992 -3.58008 -8 -8 -8h-32c-4.41992 0 -8 3.58008 -8 8v112c0 4.41992 3.58008 8 8 8h32z" />
    <glyph glyph-name="signal-2" unicode="&#xf68d;" 
d="M208 160c4.41992 0 8 -3.58008 8 -8v-208c0 -4.41992 -3.58008 -8 -8 -8h-32c-4.41992 0 -8 3.58008 -8 8v208c0 4.41992 3.58008 8 8 8h32zM80 64c4.41992 0 8 -3.58008 8 -8v-112c0 -4.41992 -3.58008 -8 -8 -8h-32c-4.41992 0 -8 3.58008 -8 8v112
c0 4.41992 3.58008 8 8 8h32z" />
    <glyph glyph-name="signal-3" unicode="&#xf68e;" 
d="M208 160c4.41992 0 8 -3.58008 8 -8v-208c0 -4.41992 -3.58008 -8 -8 -8h-32c-4.41992 0 -8 3.58008 -8 8v208c0 4.41992 3.58008 8 8 8h32zM80 64c4.41992 0 8 -3.58008 8 -8v-112c0 -4.41992 -3.58008 -8 -8 -8h-32c-4.41992 0 -8 3.58008 -8 8v112
c0 4.41992 3.58008 8 8 8h32zM336 256c4.41992 0 8 -3.58008 8 -8v-304c0 -4.41992 -3.58008 -8 -8 -8h-32c-4.41992 0 -8 3.58008 -8 8v304c0 4.41992 3.58008 8 8 8h32z" />
    <glyph glyph-name="signal-4" unicode="&#xf68f;" 
d="M208 160c4.41992 0 8 -3.58008 8 -8v-208c0 -4.41992 -3.58008 -8 -8 -8h-32c-4.41992 0 -8 3.58008 -8 8v208c0 4.41992 3.58008 8 8 8h32zM80 64c4.41992 0 8 -3.58008 8 -8v-112c0 -4.41992 -3.58008 -8 -8 -8h-32c-4.41992 0 -8 3.58008 -8 8v112
c0 4.41992 3.58008 8 8 8h32zM336 256c4.41992 0 8 -3.58008 8 -8v-304c0 -4.41992 -3.58008 -8 -8 -8h-32c-4.41992 0 -8 3.58008 -8 8v304c0 4.41992 3.58008 8 8 8h32zM464 352c4.41992 0 8 -3.58008 8 -8v-400c0 -4.41992 -3.58008 -8 -8 -8h-32
c-4.41992 0 -8 3.58008 -8 8v400c0 4.41992 3.58008 8 8 8h32z" />
    <glyph glyph-name="signal-alt" unicode="&#xf690;" 
d="M576 416h-32v-448h32v448zM416 288h-32v-320h32v320zM256 160h-32v-192h32v192zM96 32h-32v-64h32v64zM576 448c17.6699 0 32 -14.3301 32 -32v-448c0 -17.6699 -14.3301 -32 -32 -32h-32c-17.6699 0 -32 14.3301 -32 32v448c0 17.6699 14.3301 32 32 32h32zM416 320
c17.6699 0 32 -14.3301 32 -32v-320c0 -17.6699 -14.3301 -32 -32 -32h-32c-17.6699 0 -32 14.3301 -32 32v320c0 17.6699 14.3301 32 32 32h32zM256 192c17.6699 0 32 -14.3301 32 -32v-192c0 -17.6699 -14.3301 -32 -32 -32h-32c-17.6699 0 -32 14.3301 -32 32v192
c0 17.6699 14.3301 32 32 32h32zM96 64c17.6699 0 32 -14.3301 32 -32v-64c0 -17.6699 -14.3301 -32 -32 -32h-32c-17.6699 0 -32 14.3301 -32 32v64c0 17.6699 14.3301 32 32 32h32z" />
    <glyph glyph-name="signal-alt-1" unicode="&#xf691;" 
d="M96 32h-32v-64h32v64zM96 64c17.6699 0 32 -14.3301 32 -32v-64c0 -17.6699 -14.3301 -32 -32 -32h-32c-17.6699 0 -32 14.3301 -32 32v64c0 17.6699 14.3301 32 32 32h32z" />
    <glyph glyph-name="signal-alt-2" unicode="&#xf692;" 
d="M256 160h-32v-192h32v192zM96 32h-32v-64h32v64zM256 192c17.6699 0 32 -14.3301 32 -32v-192c0 -17.6699 -14.3301 -32 -32 -32h-32c-17.6699 0 -32 14.3301 -32 32v192c0 17.6699 14.3301 32 32 32h32zM96 64c17.6699 0 32 -14.3301 32 -32v-64
c0 -17.6699 -14.3301 -32 -32 -32h-32c-17.6699 0 -32 14.3301 -32 32v64c0 17.6699 14.3301 32 32 32h32z" />
    <glyph glyph-name="signal-alt-3" unicode="&#xf693;" 
d="M416 288h-32v-320h32v320zM256 160h-32v-192h32v192zM96 32h-32v-64h32v64zM416 320c17.6699 0 32 -14.3301 32 -32v-320c0 -17.6699 -14.3301 -32 -32 -32h-32c-17.6699 0 -32 14.3301 -32 32v320c0 17.6699 14.3301 32 32 32h32zM256 192c17.6699 0 32 -14.3301 32 -32
v-192c0 -17.6699 -14.3301 -32 -32 -32h-32c-17.6699 0 -32 14.3301 -32 32v192c0 17.6699 14.3301 32 32 32h32zM96 64c17.6699 0 32 -14.3301 32 -32v-64c0 -17.6699 -14.3301 -32 -32 -32h-32c-17.6699 0 -32 14.3301 -32 32v64c0 17.6699 14.3301 32 32 32h32z" />
    <glyph glyph-name="cat" unicode="&#xf6be;" horiz-adv-x="576" 
d="M432 320c8.83984 0 16 -7.16016 16 -16s-7.16016 -16 -16 -16s-16 7.16016 -16 16s7.16016 16 16 16zM480 304c0 8.83984 7.16016 16 16 16s16 -7.16016 16 -16s-7.16016 -16 -16 -16s-16 7.16016 -16 16zM544.01 448c17.6201 0 31.9902 -14.2998 31.9902 -32v-128
c0 -44.5195 -26.2998 -82.7197 -64 -100.77v-219.23c0 -17.6396 -14.3398 -32 -32 -32h-32c-17.6602 0 -32 14.3604 -32 32v103.37l-89.3799 -39.71c32.1895 -3.33008 57.3799 -30.6104 57.3799 -63.6602c0 -17.6396 -14.3398 -32 -32 -32h-208
c-44.1201 0 -80 35.8896 -80 80v256c0 26.4697 -21.5303 48 -48 48c-8.83984 0 -16 7.16016 -16 16s7.16016 16 16 16c44.1201 0 80 -35.8896 80 -80v-128.27c45.8203 85.7393 136.18 144.27 240 144.27h16v128c0 17.7002 14.3701 32 31.9902 32
c9.88086 0 18.7139 -4.46582 24.5898 -11.5098l43.7402 -52.4902h23.3594l43.7402 52.4805c6.2002 7.43945 15.2705 11.5195 24.5898 11.5195zM480 -32v209.62c-5.26953 -0.770508 -10.5195 -1.62012 -16 -1.62012c-50.5596 0 -92.9102 33.9004 -106.78 80h-21.2197
c-132.34 0 -240 -107.66 -240 -240c0 -26.4697 21.5303 -48 48 -48h208c0 17.6396 -14.3398 32 -32 32h-48v46.0303c0 0.0234375 0.0283203 0.0214844 0.0283203 0.0449219c0 29.4141 -18.6045 54.5176 -44.6787 64.1748c-3.97949 1.48047 -6.41992 5.4502 -5.38965 9.57031
l3.87988 15.5498c1.11035 4.42969 5.77051 7.24023 10.1006 5.76953c37.2197 -12.6592 63.2695 -45.8896 67.25 -84.8896l144.81 64.3701v-152.62h32zM544 288v128l-53.3398 -64h-53.3301l-53.3301 64v-128c0 -44.1797 35.8203 -80 80 -80s80 35.8203 80 80z" />
    <glyph glyph-name="elephant" unicode="&#xf6da;" 
d="M512 416.03c70.6904 0 128 -57.2998 128 -128v-208c0 -46.8701 -40.5098 -84.46 -88.3604 -79.5801c-41.6201 4.24023 -71.6396 42.46 -71.6396 84.2998v11.2695c0 17.6709 14.3301 32 32 32h32v32h-96v-192.02c0 -17.6699 -14.3301 -32 -32 -32h-64
c-17.6699 0 -32 14.3301 -32 32v80.0098c-76.9297 -38.4697 -111.57 -24.21 -160 0v-80.0098c0 -17.6699 -14.3301 -32 -32 -32h-64c-17.6699 0 -32 14.3301 -32 32v128.01h-32v128.01c0 106.051 85.96 192.011 192 192.011h124.44
c13.0498 13.7393 37.4697 31.9697 75.5498 31.9697c45.1699 0 68.5498 -26.1602 74.2002 -31.9697h45.8096zM416 -32v195.77c-36.8203 10.5303 -64 44.1104 -64 84.2607c-20.3096 8.47949 -37.6904 23.3398 -49.2197 42.5293
c-15.3604 25.6006 -18.9004 55.9902 -9.94043 85.4707c0.850586 2.80957 2.4502 5.29004 3.5498 8h-104.39c-88.2197 0 -160 -71.7803 -160 -160.011v-96.0098h32v-160.01h64v131.79l46.3096 -23.1602c54.9102 -27.46 76.5605 -27.4102 131.381 0l46.3096 23.1602v-131.79
h64zM608 80.0098v208.01c0 52.9404 -43.0596 96.0107 -96 96.0107h-59.3096c-13.9805 14.3594 -27.8408 31.9697 -60.7002 31.9697c-33.5801 0 -59.9502 -21.0195 -68.5303 -49.2803c-13.0303 -42.8799 12.1201 -77.1602 40.8701 -89.1699l19.6699 -8.20996v-21.3203
c0 -30.8799 25.1201 -56 56 -56h136v-112.01c0 -8.83008 -7.19043 -16 -16 -16s-16 7.16992 -16 16v16h-32v-16c0 -26.4697 21.5303 -48 48 -48s48 21.5303 48 48zM528 320.03c8.83984 0 16 -7.16016 16 -16s-7.16016 -16 -16 -16s-16 7.16016 -16 16s7.16016 16 16 16z" />
    <glyph glyph-name="hammer-war" unicode="&#xf6e4;" horiz-adv-x="384" 
d="M352.07 416c17.29 0 31.9297 -14.0498 31.9395 -32.0098v-191.98c0 -17.96 -14.6396 -32.0098 -31.9395 -32.0098c-1.76074 0 -3.54004 0.139648 -5.33008 0.44043l-106.74 17.79v-226.23c0 -8.83984 -7.16016 -16 -16 -16h-64c-8.83984 0 -16 7.16016 -16 16v226.23
l-106.73 -17.79c-1.7998 -0.300781 -3.5791 -0.44043 -5.3291 -0.44043c-17.3008 0 -31.9404 14.0498 -31.9404 32.0098v191.98c0 17.96 14.6396 32.0098 31.9297 32.0098c1.75 0 3.54004 -0.139648 5.33008 -0.44043l106.74 -17.79v34.2305c0 8.83984 7.16016 16 16 16h64
c8.83984 0 16 -7.16016 16 -16v-34.2305l106.74 17.79c1.7998 0.300781 3.58008 0.44043 5.33008 0.44043zM176 416v-23.5703l16 -2.66992l16 2.66992v23.5703h-32zM208 -32v215.57l-16 2.66992l-16 -2.66992v-215.57h32zM352 192.01v191.98l-154.74 -25.79
l-5.25977 -0.879883l-5.25977 0.879883l-154.74 25.79v-191.98l154.74 25.79l5.25977 0.879883l5.25977 -0.879883z" />
    <glyph glyph-name="hippo" unicode="&#xf6ed;" 
d="M584.11 351.71c32.1299 -1.69043 55.8896 -31.1201 55.8896 -63.29v-96.4199c0 -17.6699 -14.3301 -32 -32 -32v-48c0 -8.83984 -7.16016 -16 -16 -16h-64c-8.83984 0 -16 7.16016 -16 16v48h-96v-160c0 -17.6699 -14.3301 -32 -32 -32h-64
c-17.6699 0 -32 14.3301 -32 32v59.4199c-24.6602 -7.17969 -51.5596 -11.4199 -80 -11.4199s-55.3398 4.23047 -80 11.4199v-59.4199c0 -17.6699 -14.3301 -32 -32 -32h-64c-17.6699 0 -32 14.3301 -32 32v224c0 88.3701 85.96 160 192 160
c49.2402 0 94.0098 -15.5801 128 -40.9805v40.9805c0 17.6699 14.3301 32 32 32h32c17.6699 0 32 -14.3301 32 -32c39.8301 0 73.9805 -24.2695 88.5098 -58.8301c24.9502 9.36035 50.75 28.0498 79.6006 26.54zM384 0v161.62c-36.4805 7.42969 -64 39.75 -64 78.3799
v63.0703l-19.1602 14.3096c-29.8594 22.3301 -68.5195 34.6201 -108.84 34.6201c-88.2197 0 -160 -57.4199 -160 -128v-224h64v102.08c81.1602 -23.6504 103.97 -34.9805 224 0v-102.08h64zM576 128v32h-32v-32h32zM608 192v96.4199
c0 16.2598 -11.71 30.6104 -25.5703 31.3398c-19.7295 0.530273 -22.5693 -8 -95.4795 -35.3496l-11.9307 28.3594c-10.0195 23.8301 -33.1895 39.2305 -59.0195 39.2305h-32v32h-32v-144c0 -26.4697 21.5303 -48 48 -48h208zM431.81 288c8.84082 0 16 -7.16016 16 -16
s-7.15918 -16 -16 -16c-8.83984 0 -16 7.16016 -16 16s7.16016 16 16 16z" />
    <glyph glyph-name="hood-cloak" unicode="&#xf6ef;" horiz-adv-x="576" 
d="M569.65 -12.8496c15.7695 -21.0508 0.330078 -51.1504 -25.9805 -51.1504h-511.35c-26.3008 0 -41.7402 30.0996 -25.9707 51.1504c57.6699 76.9795 57.6699 140.85 57.6699 140.85v64c0 146.55 127.961 256 223.551 256h149.09
c17.5098 0 26.2803 -21.1699 13.8994 -33.5498l-39.75 -39.75c54.8105 -59.6504 101.171 -98.6699 101.171 -182.7v-64s0 -63.8701 57.6699 -140.85zM191.98 -32h191.979v160c0 52.9404 -43.0596 96 -95.9902 96c-52.9297 0 -95.9893 -43.0596 -95.9893 -96v-160z
M415.96 -32.0098l127.72 0.0195312c-62.96 84.5 -63.6895 156.96 -63.6895 160v64c0 62.1299 -29.7598 93.8301 -74.8105 141.811c-5.83984 6.21973 -38.6797 41.8193 -38.6797 41.8193l40.3496 40.3604h-119.279c-77.1299 0 -191.551 -94.0596 -191.551 -224v-64
c0 -3.04004 -0.729492 -75.5 -64.0596 -160.03l128.021 0.0107422v160.02c0 70.6904 57.2998 128 127.989 128c70.6904 0 127.99 -57.3096 127.99 -128v-160.01z" />
    <glyph glyph-name="horse" unicode="&#xf6f0;" horiz-adv-x="576" 
d="M575.95 361.73l0.0595703 -93.8809c0.00976562 -20.5498 -13.0498 -38.8193 -32.4902 -45.4492l-25.5195 -8.70996c-5.46973 -1.87012 -36.3398 -9.87012 -55.4502 18.7998l-14.5498 21.8193v-50.5195c0 -29.8496 -11.5 -58.0898 -32 -79.5996v-156.19
c0 -17.6699 -14.3301 -32 -32 -32h-64c-17.6699 0 -32 14.3301 -32 32v128.53l-83.8398 18.6299l-19.29 -53.7305l21.6797 -85.5693c5.10059 -20.1104 -10.0693 -39.8604 -31.0195 -39.8604h-57.5303c-14.7998 0 -27.6602 10.1396 -31.1104 24.5098l-21.1299 87.8604
c-2.58008 10.71 -2.31934 21.9697 0.799805 32.7402l21.9707 74.2793c-15.6299 17.9102 -24.5303 41.04 -24.5303 65.2402c0 5.81055 0.75 11.4199 1.70996 16.96c-19.4795 -6.10938 -33.71 -24.0898 -33.71 -45.5898v-56c0 -4.41992 -3.58008 -8 -8 -8h-16
c-4.41992 0 -8 3.58008 -8 8v56c0 43.7197 35.1104 79.1299 78.6504 79.8701c17.4395 28.71 48.7295 48.1299 84.71 48.1299h140.64c0 70.5801 57.4199 128 128 128h111.19c17.6699 0 32 -14.3301 32 -32c0 -11.3896 -2.99023 -22.2598 -8.38086 -31.71
c5.4707 -6.63965 9.13086 -12.9404 9.14062 -22.5596zM533.17 252.69c6.29883 2.15039 10.8301 8.11816 10.8301 15.1406v0.00878906l-0.0498047 93.8799l-20.3906 24.7803c11.5205 4.83008 19.6309 16.21 19.6309 29.5h-111.19c-53.0195 0 -96 -42.9805 -96 -96v-32
h-172.63c-37.21 0 -67.3701 -30.1602 -67.3701 -67.3701c0 -22.8701 11.4502 -43 28.8701 -55.1797l-27.6299 -93.4102c-0.806641 -2.79297 -1.24121 -5.72266 -1.24121 -8.77441c0 -2.5498 0.301758 -5.0293 0.871094 -7.40527l21.1299 -87.8604h57.5303l-24.0801 95.0498
l32.1201 89.4697l136.43 -30.3193v-154.2h64v170.19c19.3604 15.4297 32 38.9297 32 65.5996v100.21l48 -16l25.1699 -37.75c2.33984 -3.50977 9.15039 -9.45996 18.4805 -6.26953zM480 368c8.83984 0 16 -7.16016 16 -16s-7.16016 -16 -16 -16s-16 7.16016 -16 16
s7.16016 16 16 16z" />
    <glyph glyph-name="kite" unicode="&#xf6f4;" 
d="M608 448c17.7002 0 32 -14.2998 32 -32v-262.4c0 -14.8994 -10.2998 -27.7998 -24.7998 -31.1992l-361.8 -83.5l-88.2002 -88.2002c-10.9004 -10.9004 -25.9004 -16.1006 -41.4004 -14.2998c-25.5 3.09961 -43.7998 26.2998 -43.7998 52v103.1l-12 -9.2002
c-7.40039 -5.7002 -16.0996 -8.7002 -25.2998 -8.7002c-23.5 0 -42.7002 19.9004 -42.7002 44.3008v52.1992c0 24.4004 19.2002 44.3008 42.7002 44.4004c9.09961 0 17.8994 -3 25.2998 -8.7002l12 -9.2002v27.4004c0 26.5 -21.5 48 -48 48h-24c-4.40039 0 -8 3.59961 -8 8
v16c0 4.40039 3.59961 8 8 8h24c44.2002 0 80 -35.7998 80 -80v-27.5996l12 9.19922c7.40039 5.7002 16.0996 8.7002 25.2998 8.7002c23.5 0 42.7002 -19.8994 42.7002 -44.2998v-52.2002c0 -24.3994 -19.2002 -44.2998 -42.7002 -44.2998
c-9.09961 0 -17.8994 3 -25.2998 8.7002l-12 9.2002v-105.5c0 -14.7002 20.0996 -23.1006 30.5996 -12.7002l88.2002 88.2002l83.5 361.8c3.40039 14.5 16.2998 24.7998 31.2002 24.7998h262.5zM48.5996 107.7l47.4004 36.2998l47.4004 -36.2998
c7.09961 -5.40039 16.5996 0.399414 16.5996 10.2002v52.1992c0 9.80078 -9.5 15.6006 -16.5996 10.2002l-47.4004 -36.2998l-47.4004 36.2998c-7.09961 5.40039 -16.5996 -0.399414 -16.5996 -10.2002v-52.1992c0 -9.80078 9.5 -15.6006 16.5996 -10.2002zM585.4 416
h-218.801l109.4 -109.4zM340.9 396.4l-67.4004 -292.301l179.9 179.9zM296.1 81.5l292.301 67.5l-112.4 112.4zM608 174.6v218.801l-109.4 -109.4z" />
    <glyph glyph-name="mask" unicode="&#xf6fa;" 
d="M320.67 384c449.09 0 348.32 -384 158.46 -384c-39.8994 0 -77.4697 20.6904 -101.42 55.8604l-25.7295 37.79c-7.82031 11.5 -19.5703 17.25 -31.3105 17.25s-23.4795 -5.75 -31.3096 -17.25l-25.7305 -37.79c-23.9502 -35.1699 -61.5195 -55.8604 -101.42 -55.8604
c-199.11 0 -284.14 384 158.46 384zM479.13 34.9102c75.9502 0 128.87 75.8301 128.87 143.88c0 30.5898 -10.0703 74.7998 -58.0195 111.64c-49.9609 38.3701 -129.25 58.6602 -229.311 58.6602c-99.7295 0 -179.12 -20.7197 -229.6 -59.9395
c-48.8203 -37.9307 -59.0703 -82.8809 -59.0703 -113.92c0 -67.7705 52.3203 -140.32 130.22 -140.32c29.6201 0 57.9307 15.6094 75.7305 41.7598l25.7295 37.79c13.5605 19.9199 34.3301 31.3398 57 31.3398c22.6602 0 43.4404 -11.4199 57 -31.3398l25.7305 -37.79
c17.7998 -26.1504 46.1094 -41.7598 75.7197 -41.7598zM192 261.82c46.9297 0 77.4404 -29.9307 91.5195 -47.8906c5.9707 -7.60938 5.9707 -18.7695 0 -26.3896c-14.0791 -17.96 -44.5898 -47.8896 -91.5195 -47.8896s-77.4404 29.9297 -91.5195 47.8896
c-5.9707 7.61035 -5.9707 18.7695 0 26.3896c14.0791 17.96 44.5898 47.8906 91.5195 47.8906zM192 174.55c26.8301 0 46.54 13.7998 58.8203 26.1807c-12.2803 12.3799 -32 26.1797 -58.8203 26.1797s-46.54 -13.7998 -58.8203 -26.1797
c12.2803 -12.3809 31.9902 -26.1807 58.8203 -26.1807zM448 261.82c46.9297 0 77.4404 -29.9307 91.5195 -47.8906c5.9707 -7.60938 5.9707 -18.7695 0 -26.3896c-14.0791 -17.96 -44.5898 -47.8896 -91.5195 -47.8896s-77.4404 29.9297 -91.5195 47.8896
c-5.9707 7.61035 -5.9707 18.7695 0 26.3896c14.0791 17.96 44.5898 47.8906 91.5195 47.8906zM448 174.55c26.8301 0 46.54 13.7998 58.8203 26.1807c-12.2803 12.3799 -31.9902 26.1797 -58.8203 26.1797c-26.8203 0 -46.54 -13.7998 -58.8203 -26.1797
c12.2803 -12.3809 31.9902 -26.1807 58.8203 -26.1807z" />
    <glyph glyph-name="monkey" unicode="&#xf6fb;" 
d="M576 256l-5.87988 -0.00976562c-6.20996 -17.4902 -17.25 -32.5 -31.6504 -43.6504l65.4199 -192.21c2.73047 -8.17969 4.11035 -16.71 4.11035 -25.3301v-26.7998c0 -17.6699 -14.3301 -32 -32 -32h-32c-17.6699 0 -32 14.3301 -32 32v21.6396l-30.7305 92.1504
l-72.4795 -54.79c23.0195 -9.7002 39.21 -32.5 39.21 -59c0 -17.6699 -14.3301 -32 -32 -32h-240c-44.1201 0 -80 35.8896 -80 80v240c0 17.6396 -14.3398 32 -32 32s-32 -14.3604 -32 -32v-48c0 -8.83984 -7.16016 -16 -16 -16s-16 7.16016 -16 16v48
c0 35.2998 28.7197 64 64 64s64 -28.7002 64 -64v-240c0 -26.4697 21.5303 -48 48 -48h24.9004c-5.51074 9.4502 -8.90039 20.29 -8.90039 32v32c0 197.12 199.02 220.8 197.88 224h-5.87988c-35.3496 0 -64 28.6504 -64 64c0 42.0703 35.7803 64 64 64h5.87988
c13.2197 37.2002 48.3799 64 90.1201 64s76.9004 -26.7998 90.1201 -64h5.87988c28.6299 0 64 -22.1504 64 -64c0 -35.3496 -28.6504 -64 -64 -64zM576 352v-64c17.6396 0 32 14.3604 32 32c0 20.9502 -17.7803 32 -32 32zM384 288v64c-14.4297 0 -32 -11.1602 -32 -32
c0 -17.6396 14.3604 -32 32 -32zM573.53 10.0195l-63.71 187.181c-9.44043 -3.10059 -19.3398 -5.2002 -29.8203 -5.2002c-28.1602 0 -53.2402 12.3398 -70.7998 31.6602c-102.86 -3.62012 -185.2 -87.9199 -185.2 -191.66v-32c0 -17.6699 14.3301 -32 32 -32h160
c0 17.6396 -14.3398 32 -32 32h-64l177.54 134.2l46.46 -139.37v-26.8301h32v26.8096c0 5.1709 -0.839844 10.3105 -2.46973 15.21zM544 288v64c0 35.29 -28.71 64 -64 64s-64 -28.71 -64 -64v-64c0 -35.29 28.71 -64 64 -64s64 28.71 64 64zM448 352
c8.83984 0 16 -7.16016 16 -16s-7.16016 -16 -16 -16s-16 7.16016 -16 16s7.16016 16 16 16zM512 352c8.83984 0 16 -7.16016 16 -16s-7.16016 -16 -16 -16s-16 7.16016 -16 16s7.16016 16 16 16z" />
    <glyph glyph-name="narwhal" unicode="&#xf6fe;" 
d="M594.39 223.56c26.9307 -23.2393 45.6104 -56.9893 45.6104 -96.0996v-111.45c0 -44.1797 -35.8203 -80 -80 -80h-380.13c-63.9902 0 -115.87 51.8701 -115.87 115.87v108.12l-47.3799 24.9004c-10.3799 5.92969 -16.6201 15.9199 -16.6201 26.6191v92.4502
c0 9.41992 9.00977 16.0303 18.7197 16.0303c3.4707 0 7.03027 -0.839844 10.2998 -2.70996l82.9805 -47.4199l82.9697 47.4199c3.27051 1.86035 6.83008 2.70996 10.2998 2.70996c9.71094 0 18.7207 -6.62012 18.7207 -16.0303v-92.4502
c0 -10.6895 -6.23047 -20.6895 -16.6201 -26.6191l-47.3701 -24.9004v-108.12c0 -10.96 8.91016 -19.8799 19.8701 -19.8799c43.2402 0 116.77 208.28 311.29 222.62l99.1895 179.689c3.34082 6.14062 8.9707 10.6406 15.75 12.6201c6.81055 2 14 1.15039 20.1904 -2.21973
c10.4102 -5.75 15.7197 -17.75 13 -29.25zM599.04 383.82l-71.4805 -129.471c13.2607 -1.83984 26.1406 -5.83984 38.3701 -11.8994zM608 16v111.46c0 56.8896 -50.5898 96.54 -96 96.54c-128.4 0 -202.59 -95.5498 -251.68 -158.77
c-30.5 -39.2803 -50.6504 -65.2305 -80.4502 -65.2305c-28.6006 0 -51.8701 23.2695 -51.8701 51.8701v127.46l64 33.6396v65.7607l-80 -45.7109l-80 45.7109v-65.5605l64 -33.8398v-127.46c0 -46.2402 37.6299 -83.8701 83.8701 -83.8701h380.13
c26.4697 0 48 21.5303 48 48zM432 96c8.83984 0 16 -7.16016 16 -16s-7.16016 -16 -16 -16s-16 7.16016 -16 16s7.16016 16 16 16z" />
    <glyph glyph-name="whale" unicode="&#xf72c;" 
d="M432 160c8.83984 0 16 -7.16016 16 -16s-7.16016 -16 -16 -16s-16 7.16016 -16 16s7.16016 16 16 16zM512 320c64 0 128 -55.5898 128 -128.54v-111.46c0 -44.1797 -35.8203 -80 -80 -80h-380.12c-64 0 -115.88 51.8799 -115.88 115.88v108.12l-47.3799 24.9004
c-10.3799 5.92969 -16.6201 15.9199 -16.6201 26.6191v92.4502c0 9.41992 9.00977 16.0303 18.7197 16.0303c0.0136719 0 0.0478516 -0.0126953 0.0615234 -0.0126953c3.72168 0 7.21582 -0.980469 10.2383 -2.69727l82.9805 -47.4199l82.9805 47.4199
c3.26953 1.86035 6.8291 2.70996 10.2998 2.70996c9.70996 0 18.7197 -6.62012 18.7197 -16.0303v-92.4502c0 -10.6895 -6.23047 -20.6895 -16.6201 -26.6191l-47.3799 -24.9004v-108.12c0 -10.96 8.91992 -19.8799 19.8799 -19.8799c44.7705 0 121.62 224 332.12 224z
M608 80v111.46c0 56.8896 -50.5898 96.54 -96 96.54c-128.4 0 -202.59 -95.54 -251.67 -158.78c-30.5 -39.2793 -50.6504 -65.2295 -80.4502 -65.2295c-28.6104 0 -51.8799 23.2793 -51.8799 51.8799v127.46l64 33.6396v65.7607l-80 -45.7109l-80 45.7109v-65.5605
l64 -33.8398v-127.45c0 -46.25 37.6299 -83.8799 83.8799 -83.8799h380.12c26.4697 0 48 21.5303 48 48z" />
    <glyph glyph-name="hurricane" unicode="&#xf751;" horiz-adv-x="384" 
d="M176 352c114.9 0 208 -93.0996 208 -208c0 -106.4 -80 -195.6 -183.1 -207.9c-0.700195 -0.0996094 -1.30078 -0.0996094 -2 -0.0996094c-10.8008 0 -18.9004 10.5996 -15.4004 21.2002l24.5 74.7998c-114.9 0 -208 93.0996 -208 208c0 106.4 80 195.6 183.1 207.9
c0.700195 0.0996094 1.30078 0.0996094 2 0.0996094c10.8008 0 18.9004 -10.5996 15.4004 -21.2002zM222.3 -27.2002c75.5 20.5 129.7 90.1006 129.7 171.2c0 97 -79 176 -176 176h-44.0996l13.6992 42l16.1006 49.2998c-75.5 -20.5 -129.7 -90.0996 -129.7 -171.2
c0 -97 79 -176 176 -176h44.0996l-13.6992 -42zM192 264c39.7998 0 72 -32.2002 72 -72s-32.2002 -72 -72 -72s-72 32.2002 -72 72s32.2002 72 72 72zM192 152c22.0996 0 40 17.9004 40 40s-17.9004 40 -40 40s-40 -17.9004 -40 -40s17.9004 -40 40 -40z" />
    <glyph glyph-name="poll-people" unicode="&#xf759;" 
d="M145.8 56.2998c27.2002 -12.7998 46.2002 -40.2998 46.2002 -72.2998v-17.5996c0 -16.8008 -13.5996 -30.4004 -30.4004 -30.4004h-131.199c-16.8008 0 -30.4004 13.5996 -30.4004 30.4004v17.5996c0 32 19 59.5 46.2002 72.2998
c-8.7002 10.9004 -14.2002 24.6006 -14.2002 39.7002c0 35.2998 28.7002 64 64 64s64 -28.7002 64 -64c0 -15 -5.40039 -28.7002 -14.2002 -39.7002zM96 128c-17.7002 0 -32 -14.4004 -32 -32s14.2998 -32 32 -32s32 14.4004 32 32s-14.2998 32 -32 32zM32 -33.5996
l129.6 1.59961l-1.59961 16c0 26.5 -21.5 48 -48 48h-32c-26.5 0 -48 -21.5 -48 -48v-17.5996zM145.8 344.3c27.2002 -12.7998 46.2002 -40.2998 46.2002 -72.2998v-17.5996c0 -16.8008 -13.5996 -30.4004 -30.4004 -30.4004h-131.199
c-16.8008 0 -30.4004 13.5996 -30.4004 30.4004v17.5996c0 32 19 59.5 46.2002 72.2998c-8.7002 10.9004 -14.2002 24.6006 -14.2002 39.7002c0 35.2998 28.7002 64 64 64s64 -28.7002 64 -64c0 -15 -5.40039 -28.7002 -14.2002 -39.7002zM96 416
c-17.7002 0 -32 -14.4004 -32 -32s14.2998 -32 32 -32s32 14.4004 32 32s-14.2998 32 -32 32zM32 254.4l129.6 1.59961l-1.59961 16c0 26.5 -21.5 48 -48 48h-32c-26.5 0 -48 -21.5 -48 -48v-17.5996zM616 416c13.2998 0 24 -10.7002 24 -24v-112
c0 -13.2998 -10.7002 -24 -24 -24h-368c-13.2998 0 -24 10.7002 -24 24v112c0 13.2998 10.7002 24 24 24h368zM480 288v96h-224v-96h224zM608 288v96h-96v-96h96zM616 128c13.2998 0 24 -10.7002 24 -24v-112c0 -13.2998 -10.7002 -24 -24 -24h-368
c-13.2998 0 -24 10.7002 -24 24v112c0 13.2998 10.7002 24 24 24h368zM320 0v96h-64v-96h64zM608 0v96h-256v-96h256z" />
    <glyph glyph-name="rainbow" unicode="&#xf75b;" horiz-adv-x="576" 
d="M288 223.6c52.9004 0 96 -42.5 96 -95.5v-152.1c0 -4.40039 -3.59961 -8 -8 -8h-16c-4.40039 0 -8 3.59961 -8 8v152.1c0 35.3008 -28.7998 63.7002 -64 63.7002c-35.2002 -0.0996094 -64 -28.3994 -64 -63.7002v-152.1c0 -4.40039 -3.59961 -8 -8 -8h-16
c-4.40039 0 -8 3.59961 -8 8v152.1c0 52.9004 43.0996 95.4004 96 95.5zM288 416c158.8 0 288 -129 288 -287.9v-152.1c0 -4.40039 -3.59961 -8 -8 -8h-16c-4.40039 0 -8 3.59961 -8 8v152.1c0 141.301 -114.9 255.9 -256 255.9c-141.1 -0.0996094 -256 -114.6 -256 -255.9
v-152.1c0 -4.40039 -3.59961 -8 -8 -8h-16c-4.40039 0 -8 3.59961 -8 8v152.1c0 158.9 129.2 287.9 288 287.9zM288 320.2c105.9 -0.100586 192 -86.1006 192 -192.101v-152.1c0 -4.40039 -3.59961 -8 -8 -8h-16c-4.40039 0 -8 3.59961 -8 8v152.1
c0 88.3008 -71.7998 159.9 -160 159.9s-160 -71.5996 -160 -159.9v-152.1c0 -4.40039 -3.59961 -8 -8 -8h-16c-4.40039 0 -8 3.59961 -8 8v152.2c0 105.899 86.0996 192 192 192z" />
    <glyph glyph-name="angel" unicode="&#xf779;" horiz-adv-x="576" 
d="M176.7 310.7c-30 14.5 -48.7002 34.7998 -48.7002 57.2998c0 44.2002 71.5996 80 160 80s160 -35.7998 160 -80c0 -22.5 -18.7002 -42.7998 -48.7002 -57.2998c-0.700195 11.3994 -2.89941 22.2998 -6.7998 32.5996c15 8.60059 23.5 17.7998 23.5 24.7002
c0 16.9004 -48.5996 48 -128 48s-128 -31.0996 -128 -48c0 -6.90039 8.5 -16.0996 23.5 -24.7002c-3.90039 -10.2002 -6.09961 -21.2002 -6.7998 -32.5996zM572.5 -16.5996c11.4004 -23.3008 -6.90039 -47.4004 -29.0996 -47.4004h-510.801
c-21.5996 0 -40.6992 23.5 -29 47.4004l38.1006 78.6992c7.59961 15.7002 7.59961 34.4004 0 50.1006c-16.6006 33.8994 -25.6006 36.3994 -25.6006 71.7998c0 46.9004 43.2002 88 92.4004 88c23 0 44.5996 -9.2002 60.7002 -25.7002l67.5 -68.0996
c15.3994 8.7998 32.8994 13.7998 51.2998 13.7998s36 -5 51.2998 -13.9004l67.5 68.1006c16.2002 16.5 37.7002 25.7002 60.7002 25.7002c49.2002 0 92.4004 -41.1006 92.4004 -88c0 -35.3008 -8.90039 -37.6006 -25.6006 -71.8008
c-7.59961 -15.6992 -7.59961 -34.3994 0 -50.0996zM32.5996 -32h79.5l83.3008 166.7c4.39941 8.59961 9.7998 16.5 16.0996 23.3994l-65.0996 65.7002c-10.1006 10.5 -23.6006 16.2002 -37.8008 16.2002c-31.5996 0 -60.3994 -26.7002 -60.3994 -56
c0 -25.9004 4.39941 -21 22.2998 -57.7998c11.9004 -24.5 11.9004 -53.6006 0 -78.1006zM147.9 -32h280.3l-76.2002 152.4c-12.2002 24.3994 -36.7002 39.5996 -64 39.5996s-51.7998 -15.2002 -64 -39.5996zM463.9 -32v0.0996094h79.3994l-37.8994 80.1006
c-11.9004 24.5 -11.9004 53.5996 0 78.0996c17.8994 36.7998 22.3994 31.7998 22.3994 57.7998c0 29.3008 -28.7998 56 -60.3994 56c-14.2002 0 -27.7002 -5.7998 -37.8008 -16.1992l-65.0996 -65.7002c6.2998 -7 11.7998 -14.7998 16.0996 -23.4004zM208 304
c0 44.2002 35.7998 80 80 80s80 -35.7998 80 -80s-35.7998 -80 -80 -80s-80 35.7998 -80 80zM336 304c0 26.5 -21.5 48 -48 48s-48 -21.5 -48 -48s21.5 -48 48 -48s48 21.5 48 48z" />
    <glyph glyph-name="baby" unicode="&#xf77c;" horiz-adv-x="384" 
d="M374.2 287.7c17.5 -25.4004 11 -60.4004 -14.4004 -77.9004l-36.3994 -24.8994c-11 -7.5 -22.8008 -14.2002 -35.4004 -19.8008v-22.5996l54.2002 -56.2002c19.0996 -17.7998 23.5 -46.3994 10 -69.2998l-38.2998 -56.0996
c-10.4004 -15.4004 -27.9004 -24.9004 -46.6006 -24.9004c-10 0 -19.7998 2.7002 -28.3994 7.7998c-13 7.7002 -52.3008 40.5 -2 96.5l-18.4004 11.6006c-15.2002 -5.30078 -38 -5.30078 -53.0996 0l-18.4004 -11.6006c50.2998 -56 11 -88.7998 -2 -96.5
c-8.59961 -5.09961 -18.4004 -7.7998 -28.4004 -7.7998c-18.6992 0 -36.2998 9.5 -46.5996 24.9004l-38.2998 56.0996c-13.5 22.9004 -9.2002 51.5 10 69.2998l54.2998 56.2002v22.5996c-12.5996 5.7002 -24.5 12.3008 -35.4004 19.8008l-36.3994 24.8994
c-25.4004 17.5 -31.9004 52.4004 -14.4004 77.9004c17.4004 25.2998 52.1006 32.0996 77.7998 14.5l36.4004 -25c49.9004 -34.2998 106.5 -20.2002 135.9 0l36.3994 25c25.9004 17.5996 60.5 10.7002 77.9004 -14.5zM137.2 4.2002l-26.2002 35.5l29.4004 27.7002
l-35.2002 35.1992c-0.700195 0.800781 -1 1.80078 -1.7002 2.60059l-38.7998 -41.2002c-9.2002 -7.5 -11.5 -20.5996 -5.5 -30.7998l36.5996 -53.4004c4.5 -7.59961 12.5 -11.7998 20.7002 -11.7998c4.2002 0 8.40039 1 12.2002 3.2998
c11.3994 6.7998 15.2002 21.5 8.5 32.9004zM220.1 89.4004l35.9004 35.8994v10.7002h-128v-10.7002l35.9004 -35.8994c12.6992 -12.8008 43 -13.2002 56.1992 0zM319.2 64l-38.9004 41.2998c-0.599609 -0.799805 -1 -1.89941 -1.7002 -2.59961l-35.1992 -35.2002
l29.3994 -27.7002l-26.0996 -35.5996c-6.7002 -11.4004 -2.90039 -26.2002 8.5 -32.9004c3.89941 -2.2002 8.09961 -3.2998 12.2002 -3.2998c8.19922 0 16.1992 4.2002 20.6992 11.7998l36.6006 53.4004c6 10.2002 3.7002 23.2998 -5.5 30.7998zM341.6 236.2
c26.4004 18.2002 -1.19922 57.2998 -27.2998 39.5996l-36.2998 -24.8994c-54.7998 -37.7002 -124.9 -32.4004 -172.1 0l-36.3008 24.8994c-26 17.7002 -53.5996 -21.3994 -27.1992 -39.5996l36.2998 -24.9004c15.3994 -10.5996 32 -18.5 49.2998 -24.3994v-18.9004h128
v18.9004c17.2998 5.89941 33.9004 13.8994 49.2998 24.3994zM192 288c-44.2002 0 -80 35.7998 -80 80s35.7998 80 80 80s80 -35.7998 80 -80s-35.7998 -80 -80 -80zM192 416c-26.5 0 -48 -21.5 -48 -48s21.5 -48 48 -48s48 21.5 48 48s-21.5 48 -48 48z" />
    <glyph glyph-name="candy-cane" unicode="&#xf786;" horiz-adv-x="512" 
d="M497.5 356c35.7002 -75.5 2.7998 -166.1 -68.9004 -209l-347.3 -206.5c-5.2002 -3 -10.7998 -4.5 -16.3994 -4.5c-10.9004 0 -21.5 5.59961 -27.5 15.5996l-32.8008 54.9004c-9.09961 15.2002 -4.19922 34.7998 11 43.9004l353.5 210.3
c36.8008 21.8994 3.10059 76.3994 -32.7998 54.8994l-27.5 -16.3994c-14.5996 -8.7998 -34.5 -4.7002 -43.8994 11l-32.8008 54.8994c-9.09961 15.2002 -4.19922 34.8008 11 43.9004l27.5 16.4004c25.6006 15.2998 53.9004 22.5996 81.8008 22.5996
c59.3994 0 117.199 -33.0996 145.1 -92zM292.3 326.6c22.4004 13.3008 36.1006 25.1006 59.7002 25.4004v64c-39.4004 -0.0996094 -60.2002 -15.2002 -92.5 -34.5zM383.3 344c9.90039 -5.40039 18.4004 -13.2002 24.2998 -23.0996
c0.100586 -0.300781 0.200195 -0.600586 0.400391 -0.900391v0.0996094h68.5c-1.90039 7.60059 -4.5 15.1006 -7.90039 22.3008c-16.7998 35.5 -47.8994 60.2998 -84.5996 69.5v-67.9004h-0.700195zM256.8 156.6l64.2998 -36.1992l82.3008 49l-64.3008 36.1992zM289.4 101.5
l-64.3008 36.2002l-87.5 -52l64.3008 -36.2002zM64.7998 -32l105.3 62.5996l-64.2998 36.2002l-73.8994 -43.8994zM432.8 189.5c29.2998 25.7002 45.6006 62 46.5 98.5h-63c0 -21.7002 -10.8994 -43 -30.8994 -54.9004l-14.6006 -8.69922z" />
    <glyph glyph-name="carrot" unicode="&#xf787;" horiz-adv-x="512" 
d="M504.6 309.5c9.90039 -11.7998 9.90039 -29 0 -40.7002c-23.8994 -28.7998 -56.1992 -44.7002 -90.8994 -44.7002c-12.5 0 -24.6006 2.5 -36.4004 6.60059c10.2002 -30.9004 8.90039 -65.6006 -6.5 -97.1006c-13.2002 -27 -34.5996 -47.3994 -59.5996 -59.5996
l-277.601 -135.5c-3.2998 -1.59961 -6.7998 -2.40039 -10.1992 -2.40039c-8.60059 0 -16.9004 4.80078 -21 13.1006c-3.30078 6.7002 -3 14.2998 0 20.5l135.399 277.399c22.5 46 68.6006 72.8008 116.601 72.8008c13.5 0 27 -2.90039 40.2998 -7.30078
c-4.7998 13.5 -7.2998 27.7002 -6.60059 42.2002c1.5 32.7998 17.4004 63.2002 44.6006 85.7998c5.89941 4.90039 13.2002 7.40039 20.3994 7.40039c7.30078 0 14.5 -2.5 20.4004 -7.40039c27.5996 -22.8994 43.0996 -54.1992 44.7002 -86.2998
c33 -1.39941 63.5 -17.2002 86.3994 -44.7998zM342.1 147.5c11.4004 23.5 13 49.9004 4.5 74.5996c-8.5 24.7002 -26.0996 44.6006 -49.5 56c-13.5 6.60059 -27.7998 9.90039 -42.6992 9.90039c-36.2002 0 -68.5 -19.5 -85.6006 -51
c0.799805 -0.599609 1.7998 -1 2.5 -1.7002l32 -32c6.2002 -6.2002 6.2002 -16.3994 0 -22.5996c-3.09961 -3.10059 -7.2002 -4.7002 -11.2998 -4.7002s-8.2002 1.59961 -11.2998 4.7002l-26.7002 26.7002l-111.9 -229.301l100.2 49l-25.5996 25.6006
c-6.2002 6.2002 -6.2002 16.3994 0 22.5996s16.3994 6.2002 22.5996 0l32 -32c0.5 -0.5 0.700195 -1.09961 1.10059 -1.59961l124.8 60.8994c19.7002 9.60059 35.2998 25.2002 44.8994 44.9004zM413.8 256c23.9004 0 47.9004 11 66.2002 33.0996
c-18.4004 22.2002 -42.5996 33.3008 -66.7002 33.3008c-11.8994 0 -23.7002 -2.7002 -34.8994 -8c16.1992 34 7.89941 74.0996 -25.3008 101.6c-42 -34.7998 -43.7998 -89.7002 -6.59961 -126.8l6.7002 -6.7002c17.5 -17.5996 39.0996 -26.5 60.5996 -26.5z" />
    <glyph glyph-name="horse-head" unicode="&#xf7ab;" horiz-adv-x="512" 
d="M296 272c13.2998 0 24 -10.7002 24 -24s-10.7002 -24 -24 -24s-24 10.7002 -24 24s10.7002 24 24 24zM507.9 148.8c8.69922 -22.2998 3.39941 -47.5 -13.3008 -64.5l-40.5 -35.7002c-11.2998 -10.7998 -26 -16.6992 -41.5996 -16.6992h-30.0996
c-19.3008 0 -37.5 9.39941 -48.9004 25.1992l-14.7002 20.6006c-5.89941 -3.40039 -12 -6.40039 -18.5 -8.7998l18.2998 -73.3008c7.7002 -31 -16.0996 -59.5996 -46.5996 -59.5996h-224c-26.5 0 -48 21.5 -48 48v83.0996c0 241.801 118.8 279.7 276.4 348.601
c69.2998 30.2002 68.1992 32.2998 81.1992 32.2998c18.3008 0 34.2002 -12.2002 38.9004 -29.7002c6.40039 -24.7002 4.09961 -48.2002 -6.09961 -68.0996c41.8994 -26.7002 44.5996 -44.2002 117.5 -201.4zM471.8 107c7.90039 7.90039 10.2998 19.7002 6.2998 30.2002
l-61.1992 131.8c-13 36.0996 -44 62.0996 -81.3008 69.2998c44.6006 26.1006 36.9004 83.7002 19.4004 77.4004c-203.5 -93.2002 -323 -98.9004 -323 -348.5v-83.1006c0 -8.7998 7.2002 -16 16 -16h224c10.0996 0 18.0996 9.5 15.5 19.9004l-18.5 74.0996
c-4.09961 -0.399414 -8 -1.19922 -12.2002 -1.19922c-49.7998 0 -92.8994 28.6992 -114 70.2998c-1.5 3.09961 -0.799805 6.89941 1.60059 9.2998l12.0996 12.0996c4 3.90039 10.7002 2.7002 12.9004 -2.39941c14.7998 -33.7002 48.1992 -57.4004 87.3994 -57.4004
c26.2998 0 49.6006 11.1006 66.9004 28.2002l35.8994 -45.4004c5.2002 -7.2998 13.7002 -11.5996 22.7002 -11.5996h30.1006c7.39941 0 14.5996 3 19.7998 8.2002z" />
    <glyph glyph-name="lights-holiday" unicode="&#xf7b2;" 
d="M638.3 371c3.40039 -5.7998 1.5 -13.4004 -4.39941 -16.7998c-44.5 -24.6006 -94.8008 -43.6006 -148.601 -56.4004l9.7002 -23.0996l7.40039 3.09961c12.1992 5.10059 26.2998 -0.599609 31.3994 -12.7998l21.5 -51.2998
c18.2002 -5.60059 34.4004 -19.7998 45.4004 -45.9004c20.5996 -48.8994 -7.90039 -129.6 -21.2002 -135.2c-13.2998 -5.59961 -90.9004 30.4004 -111.5 79.3008c-11 26.0996 -9.90039 47.5996 -1.09961 64.5l-21.6006 51.3994
c-5.09961 12.2002 0.600586 26.2998 12.7998 31.4004l7.40039 3.09961l-12.2002 28.9004c-38 -7.2002 -77.2998 -11.1006 -117.3 -12v-23.2002h8c13.2002 0 24 -10.7998 24 -24v-55.7998c14.5996 -12.2002 24 -31.6006 24 -59.9004
c0 -53.0996 -57.5996 -116.399 -72 -116.399s-72 63.3994 -72 116.399c0 28.2998 9.40039 47.7002 24 59.9004v55.7998c0 13.2002 10.7998 24 24 24h8v23.0996c-40 0.900391 -79.2998 4.90039 -117.3 12l-12.2002 -28.8994l7.40039 -3.10059
c12.1992 -5.09961 17.8994 -19.1992 12.7998 -31.3994l-21.6006 -51.4004c8.80078 -16.8994 9.90039 -38.3994 -1.09961 -64.5c-20.5996 -48.8994 -98.2002 -84.8994 -111.5 -79.2998s-41.7998 86.2998 -21.2002 135.2c11 26.0996 27.2002 40.3994 45.4004 45.8994
l21.5996 51.4004c5.10059 12.2002 19.2002 17.9004 31.4004 12.7998l7.39941 -3.09961l9.7002 23.0996c-53.7002 12.7998 -104.1 31.7002 -148.6 56.4004c-6 3.2998 -7.90039 10.8994 -4.5 16.7998l4.09961 7c3.2998 5.7998 10.6006 7.7002 16.4004 4.40039
c83.2002 -46 188.3 -71.3008 297.7 -71.3008c109.399 0 214.6 25.3008 297.8 71.3008c5.89941 3.19922 13.0996 1.2998 16.5 -4.40039zM142.5 124.3c11.5 27.4004 5.2002 45.2002 -20 55.7998c-25.2002 10.6006 -42.2002 2.7002 -53.7998 -24.6992
c-10.5 -25 -1.7002 -66.3008 6.59961 -87.5c20.9004 8.7998 56.7002 31.3994 67.2002 56.3994zM149.1 202l13 30.7998l-29.5 12.4004l-13 -30.7998c5.10059 -1.2002 10.2002 -2.80078 15.3008 -4.90039c5.09961 -2.09961 9.7998 -4.7002 14.1992 -7.5zM571.3 155.3
c-11.5996 27.5 -28.7002 35.2998 -53.8994 24.6006c-25.1006 -10.6006 -31.5 -28.3008 -19.9004 -55.7002c10.5996 -25 46.2998 -47.5 67.2002 -56.4004c8.2998 21.2002 17.0996 62.5 6.59961 87.5zM507.4 245.2l-29.5 -12.4004l13 -30.7998
c4.39941 2.7998 9.09961 5.40039 14.1992 7.5c5.10059 2.2002 10.2002 3.7002 15.3008 4.90039zM304 224v-33.4004c5.2002 0.900391 10.5 1.40039 16 1.40039s10.7998 -0.5 16 -1.40039v33.4004h-32zM360 116.4c0 29.6992 -12.7002 43.5996 -40 43.5996
s-40 -13.7998 -40 -43.5996c0 -27.1006 24.2002 -61.8008 40 -78.1006c15.7998 16.2998 40 51 40 78.1006z" />
    <glyph glyph-name="mug-marshmallows" unicode="&#xf7b7;" horiz-adv-x="512" 
d="M416 288c52.9004 0 96 -43.0996 96 -96s-43.0996 -96 -96 -96h-32v-32c0 -53 -43 -96 -96 -96h-192c-53 0 -96 43 -96 96v192c0 17.7002 14.2998 32 32 32v64c0 17.7002 14.2998 32 32 32h128c5.40039 0 10.2002 -1.59961 14.7002 -4l26.7002 26.7002
c6.19922 6.2998 14.3994 9.39941 22.5996 9.39941s16.4004 -3.19922 22.5996 -9.39941l73.4004 -73.4004c12.5 -12.5 12.5 -32.7998 0 -45.2998h64zM256 384l-73.2998 -73.4004l22.5996 -22.5996h101.4l22.7002 22.5996zM64 352v-64h96c-12.5 12.5 -12.5 32.7998 0 45.2998
l18.7002 18.7002h-114.7zM352 64v192h-224v-80c0 -8.7998 -7.2002 -16 -16 -16s-16 7.2002 -16 16v80h-64v-192c0 -35.2998 28.7002 -64 64 -64h192c35.2998 0 64 28.7002 64 64zM416 128c35.2998 0 64 28.7002 64 64s-28.7002 64 -64 64h-32v-128h32z" />
    <glyph glyph-name="books-medical" unicode="&#xf7e8;" 
d="M639.33 -8.42969c0.431641 -1.23828 0.673828 -2.56738 0.673828 -3.95215c0 -5.2334 -3.35742 -9.68945 -8.03418 -11.3281l-7.5498 -2.63965c-6.25 -2.19043 -12.7295 0.0595703 -16.3799 10.46c-16.3496 -2.33008 -59.04 -16.7305 -75.5 -26.4199
c3.55957 -10.1504 0.219727 -16.0703 -6.27051 -18.3809c-6.48926 -2.30957 -8.48926 -3.30957 -11.4893 -3.30957c-5.23145 0.00292969 -9.68359 3.33887 -11.3506 8l-151.43 385.12v-361.12c0 -17.6611 -14.3389 -32 -32 -32h-96c-6 0 -11.2197 2.05957 -16 4.90039
c-4.78027 -2.83008 -10 -4.90039 -16 -4.90039h-96c-17.6611 0 -32 14.3389 -32 32v77.5596c10.0781 -4.48145 20.9482 -8.01953 32 -10.3291v-67.2305h96v77.5596c11.4512 5.17285 22.1777 11.6445 32 19.25v-0.80957h96v256h-96v-0.80957
c-9.82227 7.60547 -20.5488 14.0771 -32 19.25v77.5596h-96v-67.2305c-11.0518 -2.30957 -21.9219 -5.84766 -32 -10.3291v77.5596c0 17.6611 14.3389 32 32 32h96c6 0 11.2197 -2.07031 16 -4.90039c4.78027 2.83008 10 4.90039 16 4.90039h96
c17.6562 -0.00585938 31.9902 -14.3418 31.9902 -32v-6.87988c4.39941 -2.61035 5.06934 -5.4502 6.39941 -9.23047c16.3506 2.33008 59.04 16.7305 75.5 26.4199c-3.5498 10.1406 -0.219727 16.0703 6.27051 18.3809c6.49023 2.30957 8.49023 3.30957 11.4902 3.30957
c0.0117188 0 0.0195312 0.00390625 0.0322266 0.00390625c5.22168 0 9.66992 -3.34277 11.3174 -8.00391zM320 -32v64h-96v-64h96zM320 352v64h-96v-64h96zM523.15 -15.54c11.4893 6.09961 50.2695 21.6797 75.5 26.4297l-155.36 388.65
c-11.5 -6.08984 -50.2803 -21.6797 -75.5 -26.4199zM256 192c0 -70.6455 -57.3545 -128 -128 -128s-128 57.3545 -128 128s57.3545 128 128 128s128 -57.3545 128 -128zM32 192c0 -52.9834 43.0166 -96 96 -96s96 43.0166 96 96s-43.0166 96 -96 96s-96 -43.0166 -96 -96z
M149.33 133.33c0 -2.94141 -2.38867 -5.33008 -5.33008 -5.33008h-32c-2.94141 0 -5.33008 2.38867 -5.33008 5.33008v37.3398h-37.3398c-2.94141 0 -5.33008 2.38867 -5.33008 5.33008v32c0 2.94141 2.38867 5.33008 5.33008 5.33008h37.3398v37.3398
c0 2.94141 2.38867 5.33008 5.33008 5.33008h32c2.94141 0 5.33008 -2.38867 5.33008 -5.33008v-37.3398h37.3398c2.94141 0 5.33008 -2.38867 5.33008 -5.33008v-32c0 -2.94141 -2.38867 -5.33008 -5.33008 -5.33008h-37.3398v-37.3398z" />
    <glyph glyph-name="mailbox" unicode="&#xf813;" horiz-adv-x="576" 
d="M432 384c79.4756 0 144 -64.5244 144 -144v-208c0 -17.6611 -14.3389 -32 -32 -32h-512c-17.6611 0 -32 14.3389 -32 32v208c0 79.4756 64.5244 144 144 144h288zM256 32v208c0 61.8145 -50.1855 112 -112 112s-112 -50.1855 -112 -112v-208h224zM544 32v208
c-0.0664062 61.7842 -50.2158 111.934 -112 112h-198.51c32.9697 -26.3896 54.5098 -66.4805 54.5098 -112v-208h256zM496 256c8.83105 0 16 -7.16895 16 -16v-96c0 -8.83105 -7.16895 -16 -16 -16h-64c-8.83105 0 -16 7.16895 -16 16v80h-88c-4.41504 0 -8 3.58496 -8 8v16
c0 4.41504 3.58496 8 8 8h168zM480 160v64h-32v-64h32zM184 256c4.41504 0 8 -3.58496 8 -8v-16c0 -4.41504 -3.58496 -8 -8 -8h-80c-4.41504 0 -8 3.58496 -8 8v16c0 4.41504 3.58496 8 8 8h80z" />
    <glyph glyph-name="drone" unicode="&#xf85f;" horiz-adv-x="512" 
d="M302.87 320h-13.2598c-0.914062 5.2334 -1.45898 10.543 -1.61035 16c0 0.0888672 0.112305 0.168945 0.112305 0.257812c0 61.6768 50.0742 111.75 111.75 111.75c61.6768 0 111.75 -50.0732 111.75 -111.75s-50.0732 -111.75 -111.75 -111.75
c-5.39062 0 -10.6934 0.382812 -15.8818 1.12207v13.2598c0 6.68066 2.55957 12.75 6.34961 18.1104c3.16504 -0.527344 6.37012 -0.863281 9.65039 -1c44.1523 0 80 35.8467 80 80s-35.8477 80 -80 80c-44.1533 0 -80 -35.8467 -80 -80
c0.136719 -3.28027 0.472656 -6.48535 1 -9.65039c-5.36035 -3.7793 -11.4307 -6.34961 -18.1104 -6.34961zM370.75 284.12c-11.585 -11.583 -18.7471 -27.5898 -18.75 -45.25v-93.7402c0.00292969 -17.6602 7.16504 -33.667 18.75 -45.25l21.4502 -21.4502
c2.55957 0.660156 5.03027 1.57031 7.7998 1.57031c17.6611 0 32 -14.3389 32 -32s-14.3389 -32 -32 -32s-32 14.3389 -32 32c0 2.7998 0.910156 5.24023 1.57031 7.7998l-21.4502 21.46c-11.584 11.582 -27.5918 18.7402 -45.25 18.7402h-93.7402
c-17.6582 0 -33.666 -7.1582 -45.25 -18.7402l-21.4502 -21.46c0.660156 -2.55957 1.57031 -5.03027 1.57031 -7.7998c0 -17.6611 -14.3389 -32 -32 -32s-32 14.3389 -32 32s14.3389 32 32 32c2.7998 0 5.24023 -0.910156 7.7998 -1.57031l21.4502 21.4502
c11.585 11.583 18.7471 27.5898 18.75 45.25v93.7402c-0.00292969 17.6602 -7.16504 33.667 -18.75 45.25l-21.4502 21.4502c-2.55957 -0.660156 -5.03027 -1.57031 -7.7998 -1.57031c-17.6611 0 -32 14.3389 -32 32s14.3389 32 32 32s32 -14.3389 32 -32
c0 -2.7998 -0.910156 -5.24023 -1.57031 -7.7998l21.4502 -21.4502c11.583 -11.585 27.5898 -18.7471 45.25 -18.75h93.7402c17.6602 0.00292969 33.667 7.16504 45.25 18.75l21.4502 21.4502c-0.660156 2.55957 -1.57031 5.03027 -1.57031 7.7998
c0 17.6611 14.3389 32 32 32s32 -14.3389 32 -32s-14.3389 -32 -32 -32c-2.7998 0 -5.24023 0.910156 -7.7998 1.57031zM320 128v128h-128v-128h128zM112 224c-61.8145 0 -112 50.1855 -112 112s50.1855 112 112 112s112 -50.1855 112 -112
c-0.157227 -5.46289 -0.708984 -10.7812 -1.62988 -16.0195h-13.2598c-6.68066 0 -12.75 2.56934 -18.1104 6.34961c0.526367 3.16504 0.863281 6.37012 1 9.65039c0 44.1523 -35.8467 80 -80 80s-80 -35.8477 -80 -80c0 -44.1533 35.8467 -80 80 -80
c3.28027 0.135742 6.48535 0.472656 9.65039 1c3.7793 -5.36035 6.34961 -11.4307 6.34961 -18.1104v-13.2598c-5.2334 -0.914062 -10.543 -1.45898 -16 -1.61035zM209.13 64h13.2598c1.0957 -6.3877 1.60645 -12.8467 1.60645 -19.5449
c0 -63.8008 -51.7988 -115.6 -115.6 -115.6c-63.8018 0 -115.601 51.7988 -115.601 115.6c0 63.8018 51.7988 115.601 115.601 115.601c1.20508 0 2.40625 -0.0185547 3.60352 -0.0556641c5.46387 -0.150391 10.7803 -0.695312 16.0195 -1.61035v-13.2793
c0 -6.68066 -2.55957 -12.7607 -6.34961 -18.1104c-3.16504 0.526367 -6.37012 0.863281 -9.65039 1c-44.1523 0 -80 -35.8467 -80 -80s35.8477 -80 80 -80c44.1533 0 80 35.8467 80 80c-0.136719 3.2832 -0.472656 6.49121 -1 9.66016
c5.36035 3.78027 11.4307 6.33984 18.1104 6.33984zM400 160c0.0820312 0 0.155273 -0.113281 0.237305 -0.113281c61.6768 0 111.75 -50.0732 111.75 -111.75c0 -61.6758 -50.0732 -111.75 -111.75 -111.75c-61.6758 0 -111.75 50.0742 -111.75 111.75
c0 5.3916 0.382812 10.6943 1.12305 15.8828h13.2793c6.68066 0 12.75 -2.56934 18.1104 -6.34961c-0.527344 -3.16504 -0.863281 -6.37012 -1 -9.65039c0 -44.1523 35.8467 -80 80 -80s80 35.8477 80 80c0 44.1533 -35.8467 80 -80 80
c-3.28027 -0.136719 -6.48535 -0.472656 -9.65039 -1c-3.7793 5.36035 -6.34961 11.4307 -6.34961 18.1104v13.2598c5.2334 0.914062 10.543 1.45898 16 1.61035z" />
    <glyph glyph-name="fan" unicode="&#xf863;" horiz-adv-x="512" 
d="M346.54 328c83.71 0 154.74 -63 165.19 -146.49c0.166992 -1.32129 0.24707 -2.64941 0.24707 -4.01562c0 -8.03809 -2.99023 -15.3838 -7.91797 -20.9844c-5.66699 -6.43457 -13.9551 -10.4883 -23.1895 -10.5098l-2.33008 0.0800781l-0.799805 0.0800781
l-91.7402 9.24023c3.91992 -17.1289 6.00098 -34.8018 6.00098 -53.1113c0 -0.273438 0 -0.545898 -0.000976562 -0.819336c0 -83.7197 -63 -154.75 -146.5 -165.22c-1.31348 -0.166016 -2.61621 -0.262695 -3.97461 -0.262695c-9.32129 0 -17.71 4.02148 -23.5254 10.4229
c-4.96582 5.48633 -7.99707 12.7422 -7.99707 20.7178c0 1.05664 0.0537109 2.10156 0.157227 3.13184l9.24023 91.7402c-17.127 -3.91992 -34.7988 -6.00098 -53.1064 -6.00098c-0.27832 0 -0.556641 0 -0.833984 0.000976562c-83.71 0 -154.74 63 -165.21 146.48
c-0.168945 1.32422 -0.249023 2.65527 -0.249023 4.02539c0 8.03516 2.99121 15.3779 7.91895 20.9746c5.66602 6.4375 13.9541 10.4951 23.1904 10.5195l2.34961 -0.0800781l0.799805 -0.0800781l91.7402 -9.25c-3.91992 17.1318 -6.00098 34.8086 -6.00098 53.1211
c0 0.273438 0 0.545898 0.000976562 0.819336c0 83.7197 63 154.75 146.51 165.22c1.31738 0.166016 2.62598 0.25 3.98828 0.25h0.0117188c9.31055 -0.00292969 17.6855 -4.01172 23.4902 -10.4102c4.96582 -5.4873 7.99707 -12.7441 7.99707 -20.7207
c0 -1.05664 -0.0537109 -2.10059 -0.157227 -3.12891l-9.24023 -91.7402c17.1289 3.91992 34.8037 6.00098 53.1133 6.00098c0.276367 0 0.551758 0 0.827148 -0.000976562zM365.54 189.63l115.43 -11.6299c-9.42969 67.0596 -66.8193 118 -134.43 118
c-24.0303 0 -46.54 -3.73047 -66.79 -11.0996l-23.9297 -8.68066l2.5498 25.3301l11.5303 114.37c-67.2607 -8.72949 -117.9 -65.9697 -117.9 -133.39c0 -24.0205 3.73047 -46.5303 11.0596 -66.7803l8.69043 -23.9297l-25.3301 2.5498l-115.42 11.6299
c9.46973 -67.0596 66.8496 -118 134.46 -118c24.0303 0 46.54 3.73047 66.79 11.0898l23.9297 8.69043l-2.5498 -25.3301l-11.6299 -115.41c67.0596 9.42969 118 66.8096 118 134.43c0 24.0205 -3.73047 46.5303 -11.0996 66.7803l-8.69043 23.9297zM256 224
c17.6611 0 32 -14.3389 32 -32s-14.3389 -32 -32 -32s-32 14.3389 -32 32s14.3389 32 32 32z" />
    <glyph glyph-name="phone-square-alt" unicode="&#xf87b;" horiz-adv-x="448" 
d="M400 416c26.4922 0 48 -21.5078 48 -48v-352c0 -26.4922 -21.5078 -48 -48 -48h-352c-26.4922 0 -48 21.5078 -48 48v352c0 26.4922 21.5078 48 48 48h352zM416 16v352c0 8.83105 -7.16895 16 -16 16h-352c-8.83105 0 -16 -7.16895 -16 -16v-352
c0 -8.83105 7.16895 -16 16 -16h352c8.83105 0 16 7.16895 16 16zM366.11 147.12c10.5254 -4.50488 17.8848 -14.9287 17.8848 -27.0947c0 -2.28809 -0.260742 -4.5166 -0.754883 -6.65527l-13.5 -58.5c-2.95996 -13.0762 -14.6572 -22.8701 -28.624 -22.8701h-0.116211
c-153 0 -277 123.82 -277 277c0 0.0380859 0.0175781 0.0732422 0.0175781 0.111328c0 13.9629 9.76465 25.6641 22.832 28.6387l58.5 13.4902c2.15625 0.456055 4.37012 0.71582 6.65039 0.759766c10.75 0 22.8896 -8 27.1104 -17.8701l27 -63
c1.50488 -3.5498 2.36914 -7.46484 2.36914 -11.5615c0 -9.21191 -4.20996 -17.4482 -10.8096 -22.8887l-24.1299 -19.7393c14.79 -26.8203 48.5596 -60.5908 75.3799 -75.3809l19.7402 24.1309c5.43652 6.59668 13.6797 10.7734 22.8877 10.7734
c4.10156 0 8.00879 -0.834961 11.5625 -2.34375zM339 64l12.5898 54.5703l-59.3496 25.4297l-34.5303 -42.3604c-61.9199 29.0703 -94.21 60.5205 -124 124l42.29 34.6104l-25.4902 59.3301l-54.5098 -12.5801c1.05957 -133.69 109.06 -241.93 243 -243z" />
    <glyph glyph-name="border-center-h" unicode="&#xf89c;" horiz-adv-x="448" 
d="M440 208c4.41504 0 8 -3.58496 8 -8v-16c0 -4.41504 -3.58496 -8 -8 -8h-432c-4.41504 0 -8 3.58496 -8 8v16c0 4.41504 3.58496 8 8 8h432zM216 72c-8.83105 0 -16 7.16895 -16 16v16c0 8.83105 7.16895 16 16 16h16c8.83105 0 16 -7.16895 16 -16v-16
c0 -8.83105 -7.16895 -16 -16 -16h-16zM120 368c-8.83105 0 -16 7.16895 -16 16v16c0 8.83105 7.16895 16 16 16h16c8.83105 0 16 -7.16895 16 -16v-16c0 -8.83105 -7.16895 -16 -16 -16h-16zM312 368c-8.83105 0 -16 7.16895 -16 16v16c0 8.83105 7.16895 16 16 16h16
c8.83105 0 16 -7.16895 16 -16v-16c0 -8.83105 -7.16895 -16 -16 -16h-16zM216 264c-8.83105 0 -16 7.16895 -16 16v16c0 8.83105 7.16895 16 16 16h16c8.83105 0 16 -7.16895 16 -16v-16c0 -8.83105 -7.16895 -16 -16 -16h-16zM216 368c-8.83105 0 -16 7.16895 -16 16v16
c0 8.83105 7.16895 16 16 16h16c8.83105 0 16 -7.16895 16 -16v-16c0 -8.83105 -7.16895 -16 -16 -16h-16zM16 368c-8.83105 0 -16 7.16895 -16 16v16c0 8.83105 7.16895 16 16 16h16c8.83105 0 16 -7.16895 16 -16v-16c0 -8.83105 -7.16895 -16 -16 -16h-16zM432 312
c8.83105 0 16 -7.16895 16 -16v-16c0 -8.83105 -7.16895 -16 -16 -16h-16c-8.83105 0 -16 7.16895 -16 16v16c0 8.83105 7.16895 16 16 16h16zM432 416c8.83105 0 16 -7.16895 16 -16v-16c0 -8.83105 -7.16895 -16 -16 -16h-16c-8.83105 0 -16 7.16895 -16 16v16
c0 8.83105 7.16895 16 16 16h16zM120 -32c-8.83105 0 -16 7.16895 -16 16v16c0 8.83105 7.16895 16 16 16h16c8.83105 0 16 -7.16895 16 -16v-16c0 -8.83105 -7.16895 -16 -16 -16h-16zM312 -32c-8.83105 0 -16 7.16895 -16 16v16c0 8.83105 7.16895 16 16 16h16
c8.83105 0 16 -7.16895 16 -16v-16c0 -8.83105 -7.16895 -16 -16 -16h-16zM216 -32c-8.83105 0 -16 7.16895 -16 16v16c0 8.83105 7.16895 16 16 16h16c8.83105 0 16 -7.16895 16 -16v-16c0 -8.83105 -7.16895 -16 -16 -16h-16zM16 -32c-8.83105 0 -16 7.16895 -16 16v16
c0 8.83105 7.16895 16 16 16h16c8.83105 0 16 -7.16895 16 -16v-16c0 -8.83105 -7.16895 -16 -16 -16h-16zM432 16c8.83105 0 16 -7.16895 16 -16v-16c0 -8.83105 -7.16895 -16 -16 -16h-16c-8.83105 0 -16 7.16895 -16 16v16c0 8.83105 7.16895 16 16 16h16zM432 120
c8.83105 0 16 -7.16895 16 -16v-16c0 -8.83105 -7.16895 -16 -16 -16h-16c-8.83105 0 -16 7.16895 -16 16v16c0 8.83105 7.16895 16 16 16h16zM16 264c-8.83105 0 -16 7.16895 -16 16v16c0 8.83105 7.16895 16 16 16h16c8.83105 0 16 -7.16895 16 -16v-16
c0 -8.83105 -7.16895 -16 -16 -16h-16zM16 72c-8.83105 0 -16 7.16895 -16 16v16c0 8.83105 7.16895 16 16 16h16c8.83105 0 16 -7.16895 16 -16v-16c0 -8.83105 -7.16895 -16 -16 -16h-16z" />
    <glyph glyph-name="border-center-v" unicode="&#xf89d;" horiz-adv-x="448" 
d="M208 408c0 4.41504 3.58496 8 8 8h16c4.41504 0 8 -3.58496 8 -8v-432c0 -4.41504 -3.58496 -8 -8 -8h-16c-4.41504 0 -8 3.58496 -8 8v432zM344 184c0 -8.83105 -7.16895 -16 -16 -16h-16c-8.83105 0 -16 7.16895 -16 16v16c0 8.83105 7.16895 16 16 16h16
c8.83105 0 16 -7.16895 16 -16v-16zM48 88c0 -8.83105 -7.16895 -16 -16 -16h-16c-8.83105 0 -16 7.16895 -16 16v16c0 8.83105 7.16895 16 16 16h16c8.83105 0 16 -7.16895 16 -16v-16zM48 280c0 -8.83105 -7.16895 -16 -16 -16h-16c-8.83105 0 -16 7.16895 -16 16v16
c0 8.83105 7.16895 16 16 16h16c8.83105 0 16 -7.16895 16 -16v-16zM152 184c0 -8.83105 -7.16895 -16 -16 -16h-16c-8.83105 0 -16 7.16895 -16 16v16c0 8.83105 7.16895 16 16 16h16c8.83105 0 16 -7.16895 16 -16v-16zM48 184c0 -8.83105 -7.16895 -16 -16 -16h-16
c-8.83105 0 -16 7.16895 -16 16v16c0 8.83105 7.16895 16 16 16h16c8.83105 0 16 -7.16895 16 -16v-16zM48 -16c0 -8.83105 -7.16895 -16 -16 -16h-16c-8.83105 0 -16 7.16895 -16 16v16c0 8.83105 7.16895 16 16 16h16c8.83105 0 16 -7.16895 16 -16v-16zM104 400
c0 8.83105 7.16895 16 16 16h16c8.83105 0 16 -7.16895 16 -16v-16c0 -8.83105 -7.16895 -16 -16 -16h-16c-8.83105 0 -16 7.16895 -16 16v16zM0 400c0 8.83105 7.16895 16 16 16h16c8.83105 0 16 -7.16895 16 -16v-16c0 -8.83105 -7.16895 -16 -16 -16h-16
c-8.83105 0 -16 7.16895 -16 16v16zM448 88c0 -8.83105 -7.16895 -16 -16 -16h-16c-8.83105 0 -16 7.16895 -16 16v16c0 8.83105 7.16895 16 16 16h16c8.83105 0 16 -7.16895 16 -16v-16zM448 280c0 -8.83105 -7.16895 -16 -16 -16h-16c-8.83105 0 -16 7.16895 -16 16v16
c0 8.83105 7.16895 16 16 16h16c8.83105 0 16 -7.16895 16 -16v-16zM448 184c0 -8.83105 -7.16895 -16 -16 -16h-16c-8.83105 0 -16 7.16895 -16 16v16c0 8.83105 7.16895 16 16 16h16c8.83105 0 16 -7.16895 16 -16v-16zM448 -16c0 -8.83105 -7.16895 -16 -16 -16h-16
c-8.83105 0 -16 7.16895 -16 16v16c0 8.83105 7.16895 16 16 16h16c8.83105 0 16 -7.16895 16 -16v-16zM400 400c0 8.83105 7.16895 16 16 16h16c8.83105 0 16 -7.16895 16 -16v-16c0 -8.83105 -7.16895 -16 -16 -16h-16c-8.83105 0 -16 7.16895 -16 16v16zM296 400
c0 8.83105 7.16895 16 16 16h16c8.83105 0 16 -7.16895 16 -16v-16c0 -8.83105 -7.16895 -16 -16 -16h-16c-8.83105 0 -16 7.16895 -16 16v16zM152 -16c0 -8.83105 -7.16895 -16 -16 -16h-16c-8.83105 0 -16 7.16895 -16 16v16c0 8.83105 7.16895 16 16 16h16
c8.83105 0 16 -7.16895 16 -16v-16zM344 -16c0 -8.83105 -7.16895 -16 -16 -16h-16c-8.83105 0 -16 7.16895 -16 16v16c0 8.83105 7.16895 16 16 16h16c8.83105 0 16 -7.16895 16 -16v-16z" />
  </font>
</defs>
</svg>
